.
Авторизация | Регистрация
Хочешь лучшие торренты? Добавь свой email!
Добавить

Торрент скачать бесплатно

  • support: webmaster@btracker.club
» » Галвестон / Galveston (2018) WEB-DL [1080p] ATV (MVO) торрент скачать бесплатно


    Галвестон / Galveston (2018) WEB-DL [1080p] ATV (MVO) торрент скачать бесплатно

    Опубликовал: fregat | Дата: 1-11-2018, 05:00 | .torrent скачали: 0

    Галвестон / Galveston (2018) WEB-DL [1080p] ATV (MVO)Производство: США/Jean Doumanian Productions, Low Spark Films
    Жанр: Боевик, Триллер, Драма, Криминал
    Режиссер: Мелани Лоран
    Продюсер: Тайлер Дэвидсон, Декстер Брафф, Патрик Дэйли
    Актеры: Эль Фаннинг, Бен Фостер, Джеффри Гроувер, Кристофер Амитрано, Марк Хикс, Мария Вальверде, Бо Бриджес, Майкл Рэй Эскамиллья, Дж. Питер Кинг, Джимми Ли Сессомс

    Описание

    История о бывшем приспешнике мафиози Рое Кэди, который имел неосторожность перейти дорогу своему влиятельному боссу. Став мишенью наёмных убийц, Кэди пускается в бега и по стечению обстоятельств берёт ответственность за жизнь ещё и своей неожиданной спутницы — совсем молоденькой проститутки.

    Возраст: 18+ (зрителям, достигшим 18 лет. запрещено для детей)
    Дата мировой премьеры: 10 марта 2018
    Дата российской премьеры: 18 октября 2018, Парадиз
    Продолжительность: 01: 33: 20
    Качество видео: WEB-DL 1080р
    Перевод: Профессиональный многоголосый (HDRezka Studio )
    Субтитры: Английские (вшитые, отключаемые)
    Видео : H.264, 1920x800 (2.40: 1), ~4581 kbps, 23.976 fps
    Аудио#1 : AAC, 2.0 ch, 192 Kbps - Русский MVO, HDRezka Studio
    Аудио#2 : AAC, 2.0 ch, 192 Kbps - English Original
    Аудио#3 : AC3, 6.0 ch, 384 Kbps - English, Original
    Код: выделить все

    Общее
    Полное имя : /User/NNM-CLUB/Galveston.2018.WEB-DL.1080p.m4v
    Формат : MPEG-4
    Идентификатор кодека : M4V (M4V /M4A /mp42/isom)
    Размер файла : 3, 49 Гбайт
    Продолжительность : 1 ч. 33 м.
    Режим общего битрейта : Переменный
    Общий поток : 5350 Кбит/сек
    Название фильма : Галвестон
    Исполнитель : Мелани Лоран
    Режиссёр : Мелани Лоран
    Исполнитель : Ben Foster/Эль Фаннинг/Лили Рейнхарт/Бо Бриджес/Роберт Арамайо
    Сценарист : Джим Хамметт/Ник Пиццолатто
    Продюсер : Тайлер Дэвидсон
    Студия-производитель : Jean Doumanian Productions, Low Spark Films
    Жанр : Драма
    Тип содержимого : Short Film
    Дата записи : UTC 2018-10-18 07:00:00
    Дата кодирования : UTC 2018-10-31 20:45:30
    Дата пометки : UTC 2018-10-31 20:54:48
    Авторское право : © 2018 Paradise
    Обложка : Yes
    LongDescription : История о бывшем приспешнике мафиози Рое Кэди, который имел неосторожность перейти дорогу своему влиятельному боссу. Став мишенью наёмных убийц, Кэди пускается в бега и по стечению обстоятельств берёт ответственность за жизнь ещё и своей неожиданной спутницы — совсем молоденькой проститутки.
    AppleStoreCountry : Russia
    AppleStoreCatalogID : 1438937729
    ContentRating : ru-movie|18+|400|
    Видео #1
    Идентификатор : 1
    Формат : AVC
    Формат/Информация : Advanced Video Codec
    Профиль формата : High@L4
    Настройки формата : CABAC/5 Ref Frames
    Параметр CABAC формата : Да
    Параметр ReFrames формата : 5 кадров
    Идентификатор кодека : avc1
    Идентификатор кодека/Информация : Advanced Video Coding
    Продолжительность : 1 ч. 33 м.
    Битрейт : 4581 Кбит/сек
    Ширина : 1920 пикселей
    Высота : 800 пикселей
    Соотношение сторон : 2, 40:1
    Режим частоты кадров : Переменный
    Частота кадров : 23, 976 (23976/1000) кадра/сек
    Минимальная частота кадров : 23, 810 кадра/сек
    Максимальная частота кадров : 24, 390 кадра/сек
    Цветовое пространство : YUV
    Субдискретизация насыщенности : 4:2:0
    Битовая глубина : 8 бит
    Тип развёртки : Прогрессивная
    Бит/(Пиксели*Кадры) : 0.124
    Размер потока : 2, 99 Гбайт (86%)
    Язык : English
    Дата кодирования : UTC 2018-10-31 20:45:30
    Дата пометки : UTC 2018-10-31 20:54:30
    Цветовой диапазон : Limited
    Основные цвета : BT.709
    Характеристики трансфера : BT.709
    Коэффициенты матрицы : BT.709
    Menus : 6, 7
    Codec configuration box : avcC
    Видео #2
    Идентификатор : 7
    Формат : JPEG
    Идентификатор кодека : jpeg
    Продолжительность : 1 ч. 33 м.
    Вид битрейта : Переменный
    Битрейт : 376 бит/сек
    Ширина : 640 пикселей
    Высота : 266 пикселей
    Соотношение сторон : 2, 40:1
    Режим частоты кадров : Переменный
    Частота кадров : 0, 002 кадр/сек
    Минимальная частота кадров : 0, 001 кадр/сек
    Максимальная частота кадров : 0, 003 кадр/сек
    Цветовое пространство : YUV
    Субдискретизация насыщенности : 4:2:0
    Битовая глубина : 8 бит
    Метод сжатия : С потерями
    Бит/(Пиксели*Кадры) : 1.104
    Размер потока : 230 Кбайт (0%)
    Язык : English
    Default : Нет
    Дата кодирования : UTC 2018-10-31 20:54:47
    Дата пометки : UTC 2018-10-31 20:54:47
    Menu For : 1
    ColorSpace_ICC : RGB
    Аудио #1
    Идентификатор : 2
    Формат : AAC LC
    Формат/Информация : Advanced Audio Codec Low Complexity
    Идентификатор кодека : mp4a-40-2
    Продолжительность : 1 ч. 33 м.
    Вид битрейта : Переменный
    Битрейт : 182 Кбит/сек
    Максимальный битрейт : 246 Кбит/сек
    Каналы : 2 канала
    Channel layout : L R
    Частота : 48, 0 КГц
    Частота кадров : 46, 875 кадров/сек (1024 SPF)
    Метод сжатия : С потерями
    Размер потока : 121 Мбайт (3%)
    Язык : Russian
    Default : Да
    Alternate group : 1
    Дата кодирования : UTC 2018-10-31 20:45:30
    Дата пометки : UTC 2018-10-31 20:54:30
    tagc : public.main-program-content
    Аудио #2
    Идентификатор : 3
    Формат : AAC LC
    Формат/Информация : Advanced Audio Codec Low Complexity
    Идентификатор кодека : mp4a-40-2
    Продолжительность : 1 ч. 33 м.
    Вид битрейта : Переменный
    Битрейт : 192 Кбит/сек
    Максимальный битрейт : 310 Кбит/сек
    Каналы : 2 канала
    Channel layout : L R
    Частота : 48, 0 КГц
    Частота кадров : 46, 875 кадров/сек (1024 SPF)
    Метод сжатия : С потерями
    Размер потока : 131 Мбайт (4%)
    Язык : English
    Default : Нет
    Alternate group : 1
    Дата кодирования : UTC 2018-10-31 20:45:30
    Дата пометки : UTC 2018-10-31 20:54:30
    Fallback From : 4
    tagc : public.main-program-content
    Аудио #3
    Идентификатор : 4
    Формат : AC-3
    Формат/Информация : Audio Coding 3
    Коммерческое название : Dolby Digital
    Идентификатор кодека : ac-3
    Продолжительность : 1 ч. 33 м.
    Вид битрейта : Постоянный
    Битрейт : 384 Кбит/сек
    Каналы : 6 каналов
    Channel layout : L R C LFE Ls Rs
    Частота : 48, 0 КГц
    Частота кадров : 31, 250 кадров/сек (1536 SPF)
    Битовая глубина : 16 бит
    Метод сжатия : С потерями
    Размер потока : 256 Мбайт (7%)
    Язык : English
    Service kind : Complete Main
    Default : Нет
    Alternate group : 1
    Дата кодирования : UTC 2018-10-31 20:45:30
    Дата пометки : UTC 2018-10-31 20:54:30
    Fallback To : 3
    tagc : public.main-program-content
    Текст
    Идентификатор : 5
    Формат : Timed Text
    Режим смешивания : sbtl
    Идентификатор кодека : tx3g
    Продолжительность : 1 ч. 30 м.
    Вид битрейта : Переменный
    Битрейт : 45 бит/сек
    Размер потока : 30, 0 Кбайт (0%)
    Язык : English
    Default : Да
    Forced : Нет
    Alternate group : 2
    Дата кодирования : UTC 2018-10-31 20:45:30
    Дата пометки : UTC 2018-10-31 20:54:30
    tagc : public.main-program-content
    Меню
    Идентификатор : 6
    Идентификатор кодека : text
    Продолжительность : 1 ч. 33 м.
    Язык : English
    Дата кодирования : UTC 2018-10-31 20:54:30
    Дата пометки : UTC 2018-10-31 20:54:30
    Menu For : 1
    00:00:00.000 : 1
    00:10:31.172 : 2
    00:20:36.485 : 3
    00:27:37.572 : 4
    00:40:06.529 : 5
    00:50:32.404 : 6
    01:02:35.919 : 7
    01:08:36.988 : 8
    01:19:32.601 : 9
    01:27:28.868 : 10
    Вид битрейта : VBR



    Галвестон/Galveston (2018) WEB-DL [1080p] ATV (MVO)
    Рейтинг →
     (голосов: 1, оценка 4/5, голосовать можно 1 раз )

    Другие торренты по теме:

  • Галвестон / Galveston (2018) WEB-DLRip [MVO]
  • Галвестон / Galveston (2018) WEB-DL [H.264 / 1080p-LQ] [MVO]
  • Галвестон / Galveston (2018) WEB-DL [H.264 / 1080p-LQ] [MVO]
  • Галвестон / Galveston (2018) WEB-DL [MVO]
  • Галвестон / Galveston (2018) WEB-DLRip [H.264 / 1080p-LQ] [Line, AD]
  • Галвестон / Galveston (2018) WEB-DL [H.264 / 1080p-LQ]


    • Комментарии (0):

      Информация

      Информация

        Посетители, находящиеся в группе Гости, не могут оставлять комментарии в данной новости.

        ↓ Меню




        ↓ Опрос

        Вы добавили сайт в закладки?
        Да
        Нет


        Top 10 за месяц (Программы)