.
Авторизация | Регистрация
Хочешь лучшие торренты? Добавь свой email!
Добавить

Торрент скачать бесплатно

  • support: webmaster@btracker.club
» » 22 мили / Mile 22 (2018) WEB-DL [1080p] ATV торрент скачать бесплатно


    22 мили / Mile 22 (2018) WEB-DL [1080p] ATV торрент скачать бесплатно

    Опубликовал: fregat | Дата: 31-10-2018, 05:00 | .torrent скачали: 3

    22 мили / Mile 22 (2018) WEB-DL [1080p] ATVПроизводство : США
    Жанр : Боевик, триллер, криминал, приключения
    Продолжительность : 01: 34: 25
    Перевод : Дублированный(iTunes)
    Субтитры : Нет
    Режиссер : Питер Берг
    Актеры : Марк Уолберг, Лорен Кохэн, Ико Уайс, Джон Малкович, Ронда Раузи, Карло Альбан, Наталья Губская, Сиэль, Сэм Медина, Кит А. Болден
    Мировая премьера : 16 августа 2018

    Описание : Призраки — элитный отряд сверхсекретной разведки: официально они не существуют, но на самом деле — реальны. Они решают задачи, когда старые методы уже не работают, и всегда добиваются поставленной цели. Суперагенту отряда при поддержке ЦРУ предстоит непростая миссия: тайно вывести из Индонезии полицейского, владеющего доказательствами коррупции в высших политических кругах. До спасительного самолета им предстоит преодолеть 22 смертельно опасные мили.
    Качество : WEB-DL 1080p
    Контейнер : M4V
    Видео : H.264, 1908x792, 2.40: 1, 4 567 Kbps, 23.976 fps
    Аудио 1 : Русский/Дублированный (iTunes), AAC LC/2.0/160 Kbps/48.0 KHz
    Аудио 2 : Русский/Дублированный (iTunes), AC-3/5.1/384 Kbps/48.0 KHz
    Код: выделить все

    Sort Name: 22 мили
    XID: Apple:vendor_id:2018-921938
    contentID: 1438483486
    Screenwriters: Лиа Карпентер, Грэм Роланд
    Producers: Питер Берг, Стивен Левинсон, Марк Уолберг
    Director: Питер Берг
    Cast: Марк Уолберг, Лорен Коэн, Ико Уайс, Джон Малкович, Ронда Раузи, Карло Альбан, Сиэль, Сэм Медина, Кит А. Болден
    Studio: STX Entertainment, Closest to the Hole Productions, Film 44
    Rating: 136
    Long Description: Призраки — элитный отряд сверхсекретной разведки: официально они не существуют, но на самом деле — реальны. Они решают задачи, когда старые методы уже не работают, и всегда добиваются поставленной цели. Суперагенту отряда при поддержке ЦРУ предстоит непростая миссия: тайно вывести из Индонезии полицейского, владеющего доказательствами коррупции в высших политических кругах. До спасительного самолета им предстоит преодолеть 22 смертельно опасные мили.
    Description: Призраки — элитный отряд сверхсекретной разведки: официально они не существуют, но на самом деле — реальны. Они решают задачи, когда старые методы уже не работают, и всегда добиваются поставленной цели.
    Release Date: 2018-08-23T07:00:00Z
    Genre: Боевики и приключения
    Artist: Peter Berg
    Name: 22 мили
    Код: выделить все

    General
    Complete name : /Users/imac/HandBrake/Mile.22.WEB-DL.1080p.m4v
    Format : MPEG-4
    Codec ID : M4V (M4V /M4A /mp42/isom)
    File size : 3.37 GiB
    Duration : 1h 34mn
    Overall bit rate mode : Variable
    Overall bit rate : 5 114 Kbps
    Movie name : 22 мили
    Performer : Peter Berg
    Director : Питер Берг
    Actor : Марк Уолберг/Лорен Коэн/Ико Уайс/Джон Малкович/Ронда Раузи/Карло Альбан/Сиэль/Сэм Медина/Кит А. Болден
    Screenplay by : Лиа Карпентер/Грэм Роланд
    Producer : Питер Берг/Стивен Левинсон/Марк Уолберг
    Production studio : STX Entertainment, Closest to the Hole Productions, Film 44
    Genre : Боевики и приключения
    ContentType : Short Film
    Description : Призраки — элитный отряд сверхсекретной разведки: официально они не существуют, но на самом деле — реальны. Они решают задачи, когда старые методы уже не работают, и всегда добиваются поставленной цели.
    Recorded date : UTC 2018-08-23 07:00:00
    Encoded date : UTC 2018-10-29 22:50:22
    Tagged date : UTC 2018-10-29 22:51:00
    Cover : Yes
    Rating : None
    Title/Sort : 22 мили
    LongDescription : Призраки — элитный отряд сверхсекретной разведки: официально они не существуют, но на самом деле — реальны. Они решают задачи, когда старые методы уже не работают, и всегда добиваются поставленной цели. Суперагенту отряда при поддержке ЦРУ предстоит непростая миссия: тайно вывести из Индонезии полицейского, владеющего доказательствами коррупции в высших политических кругах. До спасительного самолета им предстоит преодолеть 22 смертельно опасные мили.
    AppleStoreCatalogID : 1438483486
    Vendor : Apple:vendor_id:2018-921938
    ContentRating : ru-movie|18+|400|
    Video #1
    ID : 1
    Format : AVC
    Format/Info : Advanced Video Codec
    Format profile : High@L4
    Format settings : CABAC/5 Ref Frames
    Format settings, CABAC : Yes
    Format settings, ReFrames : 5 frames
    Codec ID : avc1
    Codec ID/Info : Advanced Video Coding
    Duration : 1h 34mn
    Bit rate : 4 567 Kbps
    Width : 1 908 pixels
    Height : 792 pixels
    Display aspect ratio : 2.40:1
    Frame rate : 23.976 fps
    Color space : YUV
    Chroma subsampling : 4:2:0
    Bit depth : 8 bits
    Scan type : Progressive
    Bits/(Pixel*Frame) : 0.126
    Stream size : 3.01 GiB (89%)
    Title : Main Program
    Language : English
    Encoded date : UTC 2018-10-29 22:50:22
    Tagged date : UTC 2018-10-29 22:50:29
    Color range : Limited
    Color primaries : BT.709
    Transfer characteristics : BT.709
    Matrix coefficients : BT.709
    Menus : 4, 5
    Codec configuration box : avcC
    Video #2
    ID : 5
    Format : JPEG
    Codec ID : jpeg
    Duration : 1h 34mn
    Bit rate mode : Variable
    Bit rate : 237 bps
    Width : 640 pixels
    Height : 265 pixels
    Display aspect ratio : 2.40:1
    Frame rate mode : Constant
    Frame rate : 0.001 fps
    Color space : YUV
    Chroma subsampling : 4:2:0
    Bit depth : 8 bits
    Compression mode : Lossy
    Bits/(Pixel*Frame) : 1.397
    Stream size : 260 KiB (0%)
    Title : Chapter Images
    Language : English
    Default : No
    Encoded date : UTC 2018-10-29 22:50:34
    Tagged date : UTC 2018-10-29 22:50:34
    Menu For : 1
    ColorSpace_ICC : RGB
    Audio #1
    ID : 2
    Format : AAC LC
    Format/Info : Advanced Audio Codec Low Complexity
    Codec ID : mp4a-40-2
    Duration : 1h 34mn
    Source duration : 1h 34mn
    Bit rate mode : Variable
    Bit rate : 157 Kbps
    Maximum bit rate : 234 Kbps
    Channel(s) : 2 channels
    Channel layout : L R
    Sampling rate : 48.0 KHz
    Frame rate : 46.875 fps (1024 SPF)
    Compression mode : Lossy
    Stream size : 106 MiB (3%)
    Source stream size : 106 MiB (3%)
    Title : Russian Stereo
    Language : Russian
    Default : Yes
    Alternate group : 1
    Encoded date : UTC 2018-10-29 22:50:22
    Tagged date : UTC 2018-10-29 22:50:30
    Fallback From : 3
    Audio #2
    ID : 3
    Format : AC-3
    Format/Info : Audio Coding 3
    Commercial name : Dolby Digital
    Codec ID : ac-3
    Duration : 1h 34mn
    Bit rate mode : Constant
    Bit rate : 384 Kbps
    Channel(s) : 6 channels
    Channel layout : L R C LFE Ls Rs
    Sampling rate : 48.0 KHz
    Frame rate : 31.250 fps (1536 SPF)
    Bit depth : 16 bits
    Compression mode : Lossy
    Stream size : 259 MiB (8%)
    Title : Russian DD 5.1
    Language : Russian
    Service kind : Complete Main
    Default : Inherited From: 2
    Alternate group : 1
    Encoded date : UTC 2018-10-29 22:50:22
    Tagged date : UTC 2018-10-29 22:50:29
    Fallback To : 2
    Menu #1
    00:00:00.000 : 1
    00:12:12.000 : 2
    00:21:43.000 : 3
    00:30:41.000 : 4
    00:42:54.000 : 5
    00:52:46.000 : 6
    01:03:47.000 : 7
    01:13:07.000 : 8
    01:26:47.000 : 9
    Menu #2
    ID : 4
    Codec ID : text
    Duration : 1h 34mn
    Language : English
    Encoded date : UTC 2018-10-29 22:50:30
    Tagged date : UTC 2018-10-29 22:50:30
    Bit rate mode : CBR
    Menu For : 1
    00:00:00.000 : 1
    00:12:12.000 : 2
    00:21:43.000 : 3
    00:30:41.000 : 4
    00:42:54.000 : 5
    00:52:46.000 : 6
    01:03:47.000 : 7
    01:13:07.000 : 8
    01:26:47.000 : 9
    Скриншоты :


    Все одноименные релизы в Клубе


    Релиз подготовлен для просмотра наApple TV, iPad, iPhone, iPod Touch.
    Для просмотра данного релиза на компьютере с ОС Windows рекомендуется использоватьVLC media player


    22 мили/Mile 22 (2018) WEB-DL [1080p] ATV
    Рейтинг →
     (голосов: 1, оценка 3/5, голосовать можно 1 раз )

    Другие торренты по теме:

  • 22 мили / Mile 22 (2018) BDRemux [H.264 / 1080p]
  • 22 мили / Mile 22 (2018) BDRip [H.264 / 1080p] [PR]
  • 22 мили / Mile 22 (2018) BDRip [H.264 / 720p] [PR]
  • 22 мили / Mile 22 (2018) BDRemux [H.264 / 1080p] [EN / EN, Fr Sub]
  • 22 мили / Mile 22 (2018) TS [H.264 / 720р-LQ] [MVO] [AD]
  • 22 мили / Mile 22 (2018) WEBRip [H.264 / 1080p] [EN / EN Sub] [PR]
  • 22 мили / Mile 22 (2018) WEBRip [Line, AD]
  • 22 мили / Mile 22 (2018) WEBRip [H.264 / 1080р-LQ] [Line, AD]


    • Комментарии (0):

      Информация

      Информация

        Посетители, находящиеся в группе Гости, не могут оставлять комментарии в данной новости.

        ↓ Меню




        ↓ Опрос

        Вы добавили сайт в закладки?
        Да
        Нет


        Top 10 за месяц (Программы)