.
Авторизация | Регистрация
Хочешь лучшие торренты? Добавь свой email!
Добавить

Торрент скачать бесплатно

  • support: webmaster@btracker.club
» » Планета зверей / Dong wu shi jie (2018) WEB-DL [1080p] MVO торрент скачать бесплатно


    Планета зверей / Dong wu shi jie (2018) WEB-DL [1080p] MVO торрент скачать бесплатно

    Опубликовал: fregat | Дата: 31-10-2018, 05:00 | .torrent скачали: 0

    Планета зверей / Dong wu shi jie (2018) WEB-DL [1080p] MVOПроизводство: Китай/Beijing Ruyi Xinxin Film Investment, Enlight Pictures
    Жанр: Драма, Приключения, Триллер
    Режиссер: Хань Янь
    Продюсер: Едда Чэнь
    Актеры: Ли Ифэн, Чжоу Дунъюй, Майкл Дуглас, Цао Бинкунь, Эрик Хейз, Альберто Ланселлотти, Ли Ицзюань, Кит Шиллито, Ван Гэ

    Описание

    Актёр-неудачник Чжэн Кайси, работающий клоуном, сталкивается со сложной жизненной ситуацией: его мать уже несколько лет лежит в коме, а самого парня подставляет лучший друг. Теперь Кайси потерял отцовскую квартиру и остался должен невероятную сумму. Но судьба дает ему шанс. Оказывается, существует загадочный корабль, на котором любому желающему предлагают сыграть в камень-ножницы-бумага, и где можно встретить людей со всего света, даже русских. На кону — списание всех денежных долгов. Кайси решает принять участие в игре...

    Возраст: 16+ (зрителям, достигшим 16 лет)
    Дата мировой премьеры: 28 июня 2018
    Дата российской премьеры: 2 августа 2018, MEGOGO Distribution
    Продолжительность: 02: 10: 19
    Качество видео: WEB-DL 1080р
    Перевод: Профессиональный многоголосый (HDRezka Studio )
    Субтитры: Английские (Full)
    Видео : H.264, 1920x720 (2.667), ~3104 kbps, 24.000 fps
    Аудио#1 : AAC, 2.0 ch, 183 Kbps - Русский MVO, HDRezka Studio
    Аудио#2 : AAC, 2.0 ch, 173 Kbps - Chinese, Original
    Код: выделить все

    Общее
    Полное имя : /Users/NNM-CLUB/Animal.World.2018.WEB-DL.1080p.m4v
    Формат : MPEG-4
    Идентификатор кодека : M4V (M4V /M4A /mp42/isom)
    Размер файла : 3, 16 Гбайт
    Продолжительность : 2 ч. 10 м.
    Режим общего битрейта : Переменный
    Общий поток : 3467 Кбит/сек
    Название фильма : Планета зверей
    Исполнитель : Han Yan
    Композитор : Xueran Chen, Garrett Gonzales
    Режиссёр : Han Yan
    Исполнитель : Li Yi Feng/Zhou Dongyu/Michael Douglas/Cao Bingkun/Li Yijuan
    Сценарист : Nobuyuki Fukumoto/Han Yan
    Продюсер : Yedda Zhixi Chen
    Жанр : драма, боевик, приключения
    Тип содержимого : Short Film
    Дата записи : UTC 2018-06-29 00:00:00
    Дата кодирования : UTC 2018-10-30 14:18:04
    Дата пометки : UTC 2018-10-30 14:21:58
    Обложка : Yes
    LongDescription : Главный герой фильма, который погряз в долгах, решает принять участие в таинственных и опасных играх…
    Видео
    Идентификатор : 1
    Формат : AVC
    Формат/Информация : Advanced Video Codec
    Профиль формата : Main@L4
    Настройки формата : CABAC/2 Ref Frames
    Параметр CABAC формата : Да
    Параметр ReFrames формата : 2 кадра
    Идентификатор кодека : avc1
    Идентификатор кодека/Информация : Advanced Video Coding
    Продолжительность : 2 ч. 10 м.
    Продолжительность оригинала : 2 ч. 10 м.
    Битрейт : 3104 Кбит/сек
    Ширина : 1920 пикселей
    Высота : 720 пикселей
    Соотношение сторон : 2, 667
    Режим частоты кадров : Переменный
    Частота кадров : 24, 000 кадра/сек
    Минимальная частота кадров : 23, 810 кадра/сек
    Максимальная частота кадров : 24, 390 кадра/сек
    Цветовое пространство : YUV
    Субдискретизация насыщенности : 4:2:0
    Битовая глубина : 8 бит
    Тип развёртки : Прогрессивная
    Бит/(Пиксели*Кадры) : 0.094
    Размер потока : 2, 83 Гбайт (90%)
    Размер потока оригинала : 2, 83 Гбайт (90%)
    Язык : English
    Дата кодирования : UTC 2018-10-30 14:18:04
    Дата пометки : UTC 2018-10-30 14:21:58
    Codec configuration box : avcC
    Аудио #1
    Идентификатор : 2
    Формат : AAC LC
    Формат/Информация : Advanced Audio Codec Low Complexity
    Идентификатор кодека : mp4a-40-2
    Продолжительность : 2 ч. 10 м.
    Вид битрейта : Переменный
    Битрейт : 183 Кбит/сек
    Максимальный битрейт : 250 Кбит/сек
    Каналы : 2 канала
    Channel layout : L R
    Частота : 48, 0 КГц
    Частота кадров : 46, 875 кадров/сек (1024 SPF)
    Метод сжатия : С потерями
    Размер потока : 171 Мбайт (5%)
    Язык : Russian
    Default : Да
    Alternate group : 1
    Дата кодирования : UTC 2018-10-30 14:18:05
    Дата пометки : UTC 2018-10-30 14:21:58
    tagc : public.main-program-content
    Аудио #2
    Идентификатор : 3
    Формат : AAC LC
    Формат/Информация : Advanced Audio Codec Low Complexity
    Идентификатор кодека : mp4a-40-2
    Продолжительность : 2 ч. 10 м.
    Вид битрейта : Переменный
    Битрейт : 173 Кбит/сек
    Максимальный битрейт : 273 Кбит/сек
    Каналы : 2 канала
    Channel layout : L R
    Частота : 48, 0 КГц
    Частота кадров : 46, 875 кадров/сек (1024 SPF)
    Метод сжатия : С потерями
    Размер потока : 161 Мбайт (5%)
    Язык : Chinese
    Default : Нет
    Alternate group : 1
    Дата кодирования : UTC 2018-10-30 14:18:05
    Дата пометки : UTC 2018-10-30 14:21:12
    tagc : public.main-program-content
    Текст
    Идентификатор : 4
    Формат : Timed Text
    Режим смешивания : sbtl
    Идентификатор кодека : tx3g
    Продолжительность : 2 ч. 3 м.
    Вид битрейта : Переменный
    Битрейт : 50 бит/сек
    Размер потока : 45, 1 Кбайт (0%)
    Язык : English
    Default : Да
    Forced : Нет
    Alternate group : 2
    Дата кодирования : UTC 2018-10-30 14:18:05
    Дата пометки : UTC 2018-10-30 14:21:58
    tagc : public.main-program-content



    Планета зверей/Dong wu shi jie (2018) WEB-DL [1080p] MVO
    Рейтинг →
     (голосов: 1, оценка 5/5, голосовать можно 1 раз )

    Другие торренты по теме:

  • Планета зверей / Dong wu shi jie (2018) TS [H.264 / 720p-LQ] [MVO] [AD]
  • Планета зверей / Dong wu shi jie (2018) WEBRip [H.264 / 720p-LQ] [AD]
  • Планета зверей / Dong wu shi jie (2018) WEB-DLRip [MVO]
  • Планета зверей / Dong wu shi jie (2018) WEB-DL [H.264 / 1080p-LQ] [MVO]
  • Планета зверей / Dong wu shi jie (2018) ac3 5.1 [hand made]
  • Планета зверей / Dong wu shi jie (2018) WEB-DLRip [H.264 / 720p-LQ] [MVO]


    • Комментарии (0):

      Информация

      Информация

        Посетители, находящиеся в группе Гости, не могут оставлять комментарии в данной новости.

        ↓ Меню




        ↓ Опрос

        Вы добавили сайт в закладки?
        Да
        Нет


        Top 10 за месяц (Программы)