.
Авторизация | Регистрация
Хочешь лучшие торренты? Добавь свой email!
Добавить

Торрент скачать бесплатно

  • support: webmaster@btracker.club
» » Мег: Монстр глубины / The Meg (2018) WEB-DL [1080p] ATV торрент скачать бесплатно


    Мег: Монстр глубины / The Meg (2018) WEB-DL [1080p] ATV торрент скачать бесплатно

    Опубликовал: fregat | Дата: 31-10-2018, 05:00 | .torrent скачали: 0

    Мег: Монстр глубины / The Meg (2018) WEB-DL [1080p] ATVПроизводство: США, Китай/Apelles Entertainmentm, Di Bonaventura Pictures, Flagship Entertainment Group, Gravity Pictures, Maeday Productions
    Жанр: Ужасы, Фантастика, Боевик, Триллер
    Режиссер: Джон Тёртлтауб
    Продюсер: Кеннет Этчити, Белль Эйвери, Чэнь Цзе
    Актеры: Джейсон Стэйтем, Ли Бинбин, Рэйн Уилсон, Клифф Кёртис, Уинстон Чао, Шуя Софиа Цай, Руби Роуз, Пейдж Кеннеди, Роберт Тейлор, Оулавюр Дарри Оулафссон

    Описание

    Глубоководный батискаф, осуществляющий наблюдение в рамках международной программы по изучению подводной жизни, был атакован огромным существом, которое все считали давно вымершим. Неисправный аппарат теперь лежит на дне глубочайшей впадины Тихого океана… с оказавшимся в ловушке экипажем. Их время на исходе. Китайский океанограф-новатор, несмотря на протесты его дочери Суинь, зовет спасателя-подводника Джонаса Тейлора, чтобы тот помог спасти команду и океан от невиданной угрозы — доисторической 23-метровой акулы, мегалодона. Никто и подумать не мог, что много лет назад Тейлор уже сталкивался с этим чудовищным созданием.

    Возраст: 16+ (зрителям, достигшим 16 лет)
    Рейтинг MPAA: PG-13 (детям до 13 лет просмотр нежелателен)
    Дата мировой премьеры: 8 августа 2018
    Дата российской премьеры: 9 августа 2018, Каро-Премьер
    Продолжительность: 01: 54: 39
    Качество видео: WEB-DL 1080p
    Перевод: Дублированный (iTunes )
    Субтитры: Русские (Forced, full), украинские (Forced), английские
    Видео : H.264, 1920x798 (2.40: 1), ~4543 kbps, 23.976 fps
    Аудио#1 : AAC, 2.0 ch, 197 Kbps - Русский DUB, iTunes
    Аудио#2 : AAC, 2.0 ch, 186 Kbps - Український DUB, iTunes
    Аудио#3 : AAC, 2.0 ch, 192 Kbps - English Original
    Аудио#4 : AC3, 6.0 ch, 384 Kbps - Русский DUB, iTunes
    Аудио#5 : AC3, 6.0 ch, 384 Kbps - English, Original
    Код: выделить все

    Общее
    Полное имя : /Users/NNM-CLUB/The.Meg.2018.1080p.WEB-DL.m4v
    Формат : MPEG-4
    Идентификатор кодека : M4V (M4V /M4A /mp42/isom)
    Размер файла : 4, 66 Гбайт
    Продолжительность : 1 ч. 53 м.
    Режим общего битрейта : Переменный
    Общий поток : 5892 Кбит/сек
    Название фильма : Мег: Монстр глубины
    Исполнитель : Jon Turteltaub
    Режиссёр : Jon Turteltaub
    Исполнитель : Jason Statham/Bingbing Li/Rainn Wilson/Ruby Rose/Winston Chao/Page Kennedy/Jessica McNamee/Ólafur Darri Ólafsson/Robert Taylor/Cliff Curtis/Sophia Shuya Cai/Masi Oka
    Сценарист : Dean Georgaris/Jon Hoeber/Erich Hoeber/Steve Alten
    Продюсер : Lorenzo di Bonaventura/Belle Avery/Colin Wilson
    Исполнительный продюсер : Randy Greenberg, Barrie M. Osborne, Gerald R. Molen, Wayne Wei Jiang, Ben Erwei Ji
    Студия-производитель : Warner Home Video
    Жанр : Боевики и приключения
    Тип содержимого : Short Film
    Дата записи : UTC 2018-08-09 07:00:00
    Дата кодирования : UTC 2018-10-30 20:21:28
    Дата пометки : UTC 2018-10-30 20:29:00
    Авторское право : © 2018 Warner Bros. Entertainment Inc.
    Обложка : Yes
    LongDescription : Глубоководный аппарат, на борту которого находится международная исследовательская группа, застрял на дне Тихого океана, атакованный огромной акулой, о которой ранее думали как о вымершем виде. Когда время на исходе, китайский океанограф-новатор (Уинстон Чао) нанимает эксперта по глубоководным спасательным операциям Джонаса Тэйлора (Джейсон Стейтем) для спасения команды — и самого океана — от этой неостановимой угрозы: доисторической 23-метровой акулы, известной как Мегалодон. Никто и не мог бы себе представить, что несколько лет тому назад Тэйлор уже встречался с этим ужасным монстром. Теперь он должен рисковать собственной жизнью для спасения всех людей, находящихся в ловушке глубоко под водой, ... и снова встретиться лицом к лицу с самым великим и крупным хищником всех времен!
    AppleStoreCountry : Russia
    AppleStoreCatalogID : 1417714264
    ContentRating : ru-movie|16+|375|
    Видео #1
    Идентификатор : 1
    Формат : AVC
    Формат/Информация : Advanced Video Codec
    Профиль формата : High@L4
    Настройки формата : CABAC/5 Ref Frames
    Параметр CABAC формата : Да
    Параметр ReFrames формата : 5 кадров
    Идентификатор кодека : avc1
    Идентификатор кодека/Информация : Advanced Video Coding
    Продолжительность : 1 ч. 53 м.
    Битрейт : 4534 Кбит/сек
    Ширина : 1920 пикселей
    Высота : 798 пикселей
    Соотношение сторон : 2, 40:1
    Режим частоты кадров : Переменный
    Частота кадров : 23, 976 кадра/сек
    Минимальная частота кадров : 23, 810 кадра/сек
    Максимальная частота кадров : 24, 390 кадра/сек
    Цветовое пространство : YUV
    Субдискретизация насыщенности : 4:2:0
    Битовая глубина : 8 бит
    Тип развёртки : Прогрессивная
    Бит/(Пиксели*Кадры) : 0.123
    Размер потока : 3, 58 Гбайт (77%)
    Язык : English
    Дата кодирования : UTC 2018-10-30 20:21:29
    Дата пометки : UTC 2018-10-30 20:28:51
    Цветовой диапазон : Limited
    Основные цвета : BT.709
    Характеристики трансфера : BT.709
    Коэффициенты матрицы : BT.709
    Menus : 11, 12
    Codec configuration box : avcC
    Видео #2
    Идентификатор : 12
    Формат : JPEG
    Идентификатор кодека : jpeg
    Продолжительность : 1 ч. 53 м.
    Вид битрейта : Переменный
    Битрейт : 283 бит/сек
    Ширина : 640 пикселей
    Высота : 266 пикселей
    Соотношение сторон : 2, 40:1
    Режим частоты кадров : Постоянный
    Частота кадров : 0, 001 кадр/сек
    Цветовое пространство : YUV
    Субдискретизация насыщенности : 4:2:0
    Битовая глубина : 8 бит
    Метод сжатия : С потерями
    Бит/(Пиксели*Кадры) : 1.662
    Размер потока : 380 Кбайт (0%)
    Язык : English
    Default : Нет
    Дата кодирования : UTC 2018-10-30 20:28:59
    Дата пометки : UTC 2018-10-30 20:28:59
    Menu For : 1
    ColorSpace_ICC : RGB
    Аудио #1
    Идентификатор : 2
    Формат : AAC LC
    Формат/Информация : Advanced Audio Codec Low Complexity
    Идентификатор кодека : mp4a-40-2
    Продолжительность : 1 ч. 53 м.
    Вид битрейта : Переменный
    Битрейт : 197 Кбит/сек
    Максимальный битрейт : 306 Кбит/сек
    Каналы : 2 канала
    Channel layout : L R
    Частота : 48, 0 КГц
    Частота кадров : 46, 875 кадров/сек (1024 SPF)
    Метод сжатия : С потерями
    Размер потока : 159 Мбайт (3%)
    Язык : Russian
    Default : Да
    Alternate group : 1
    Дата кодирования : UTC 2018-10-30 20:21:29
    Дата пометки : UTC 2018-10-30 20:28:51
    Fallback From : 5
    tagc : public.main-program-content
    Аудио #2
    Идентификатор : 3
    Формат : AAC LC
    Формат/Информация : Advanced Audio Codec Low Complexity
    Идентификатор кодека : mp4a-40-2
    Продолжительность : 1 ч. 53 м.
    Вид битрейта : Переменный
    Битрейт : 186 Кбит/сек
    Максимальный битрейт : 288 Кбит/сек
    Каналы : 2 канала
    Channel layout : L R
    Частота : 44, 1 КГц
    Частота кадров : 43, 066 кадра/сек (1024 SPF)
    Метод сжатия : С потерями
    Размер потока : 151 Мбайт (3%)
    Язык : Ukrainian
    Default : Нет
    Alternate group : 1
    Дата кодирования : UTC 2018-10-30 20:21:29
    Дата пометки : UTC 2018-10-30 20:28:51
    tagc : public.main-program-content
    Аудио #3
    Идентификатор : 4
    Формат : AAC LC
    Формат/Информация : Advanced Audio Codec Low Complexity
    Идентификатор кодека : mp4a-40-2
    Продолжительность : 1 ч. 53 м.
    Вид битрейта : Переменный
    Битрейт : 192 Кбит/сек
    Максимальный битрейт : 311 Кбит/сек
    Каналы : 2 канала
    Channel layout : L R
    Частота : 48, 0 КГц
    Частота кадров : 46, 875 кадров/сек (1024 SPF)
    Метод сжатия : С потерями
    Размер потока : 158 Мбайт (3%)
    Язык : English
    Default : Нет
    Alternate group : 1
    Дата кодирования : UTC 2018-10-30 20:21:29
    Дата пометки : UTC 2018-10-30 20:28:51
    Fallback From : 6
    tagc : public.main-program-content
    Аудио #4
    Идентификатор : 5
    Формат : AC-3
    Формат/Информация : Audio Coding 3
    Коммерческое название : Dolby Digital
    Идентификатор кодека : ac-3
    Продолжительность : 1 ч. 53 м.
    Вид битрейта : Постоянный
    Битрейт : 384 Кбит/сек
    Каналы : 6 каналов
    Channel layout : L R C LFE Ls Rs
    Частота : 48, 0 КГц
    Частота кадров : 31, 250 кадров/сек (1536 SPF)
    Битовая глубина : 16 бит
    Метод сжатия : С потерями
    Размер потока : 311 Мбайт (7%)
    Язык : Russian
    Service kind : Complete Main
    Default : Inherited From: 2
    Alternate group : 1
    Дата кодирования : UTC 2018-10-30 20:21:29
    Дата пометки : UTC 2018-10-30 20:28:51
    Fallback To : 2
    tagc : public.main-program-content
    Аудио #5
    Идентификатор : 6
    Формат : AC-3
    Формат/Информация : Audio Coding 3
    Коммерческое название : Dolby Digital
    Идентификатор кодека : ac-3
    Продолжительность : 1 ч. 53 м.
    Вид битрейта : Постоянный
    Битрейт : 384 Кбит/сек
    Каналы : 6 каналов
    Channel layout : L R C LFE Ls Rs
    Частота : 48, 0 КГц
    Частота кадров : 31, 250 кадров/сек (1536 SPF)
    Битовая глубина : 16 бит
    Метод сжатия : С потерями
    Размер потока : 311 Мбайт (7%)
    Язык : English
    Service kind : Complete Main
    Default : Нет
    Alternate group : 1
    Дата кодирования : UTC 2018-10-30 20:21:29
    Дата пометки : UTC 2018-10-30 20:28:51
    Fallback To : 4
    tagc : public.main-program-content
    Текст #1
    Идентификатор : 7
    Формат : Timed Text
    Режим смешивания : sbtl
    Идентификатор кодека : tx3g
    Продолжительность : 1 ч. 42 м.
    Вид битрейта : Переменный
    Битрейт : 6 бит/сек
    Размер потока : 4, 16 Кбайт (0%)
    Язык : Russian
    Default : Да
    Forced : Нет
    Alternate group : 2
    Дата кодирования : UTC 2018-10-30 20:21:29
    Дата пометки : UTC 2018-10-30 20:28:51
    tagc : public.subtitles.forced-only
    Текст #2
    Идентификатор : 8
    Формат : Timed Text
    Режим смешивания : sbtl
    Идентификатор кодека : tx3g
    Продолжительность : 1 ч. 53 м.
    Вид битрейта : Переменный
    Битрейт : 86 бит/сек
    Размер потока : 71, 2 Кбайт (0%)
    Язык : Russian
    Default : Нет
    Forced : Нет
    Alternate group : 2
    Дата кодирования : UTC 2018-10-30 20:21:29
    Дата пометки : UTC 2018-10-30 20:28:52
    tagc : public.main-program-content
    Текст #3
    Идентификатор : 9
    Формат : Timed Text
    Режим смешивания : sbtl
    Идентификатор кодека : tx3g
    Продолжительность : 1 ч. 53 м.
    Вид битрейта : Переменный
    Битрейт : 6 бит/сек
    Размер потока : 4, 60 Кбайт (0%)
    Язык : Ukrainian
    Default : Нет
    Forced : Нет
    Alternate group : 2
    Дата кодирования : UTC 2018-10-30 20:21:29
    Дата пометки : UTC 2018-10-30 20:28:51
    tagc : public.subtitles.forced-only
    Текст #4
    Идентификатор : 10
    Формат : Timed Text
    Режим смешивания : sbtl
    Идентификатор кодека : tx3g
    Продолжительность : 1 ч. 41 м.
    Вид битрейта : Переменный
    Битрейт : 62 бит/сек
    Размер потока : 46, 5 Кбайт (0%)
    Язык : English
    Default : Нет
    Forced : Нет
    Alternate group : 2
    Дата кодирования : UTC 2018-10-30 20:21:29
    Дата пометки : UTC 2018-10-30 20:28:52
    tagc : public.accessibility.transcribes-spoken-dialog
    Меню
    Идентификатор : 11
    Идентификатор кодека : text
    Продолжительность : 1 ч. 53 м.
    Язык : English
    Дата кодирования : UTC 2018-10-30 20:28:53
    Дата пометки : UTC 2018-10-30 20:28:53
    Menu For : 1
    00:00:00.000 : 1
    00:08:48.000 : 2
    00:18:14.000 : 3
    00:27:10.000 : 4
    00:39:31.000 : 5
    00:49:11.000 : 6
    00:58:01.000 : 7
    01:08:23.000 : 8
    01:19:46.000 : 9
    01:30:04.000 : 10
    01:42:43.000 : 11
    Вид битрейта : VBR



    Мег: Монстр глубины/The Meg (2018) WEB-DL [1080p] ATV
    Рейтинг →
     (голосов: 1, оценка 5/5, голосовать можно 1 раз )

    Другие торренты по теме:

  • Мег: Монстр глубины / The Meg (2018) CamRip [AD]
  • Мег: Монстр глубины / The Meg (2018) WEBRip [H.264 / 1080p-LQ] [EN / KOR Sub]
  • Мег: Монстр глубины / The Meg (2018) WEBRip [H.264 / 1080p-LQ] [MVO, AD]
  • Мег: Монстр глубины / The Meg (2018) WEBRip [Звук с TS] [AD]
  • Мег: Монстр глубины / The Meg (2018) WEBRip [H.264 / 720p-LQ] [Звук с TS] [AD]
  • Мег: Монстр глубины / The Meg (2018) WEBRip [MVO]
  • Мег: Монстр глубины / The Meg (2018) WEBRip [H.264 / 1080p-LQ] [MVO]
  • Мег: Монстр глубины / The Meg (2018) WEBRip [H.264 / 720p-LQ] [MVO]


    • Комментарии (0):

      Информация

      Информация

        Посетители, находящиеся в группе Гости, не могут оставлять комментарии в данной новости.

        ↓ Меню




        ↓ Опрос

        Вы добавили сайт в закладки?
        Да
        Нет


        Top 10 за месяц (Программы)