.
Авторизация | Регистрация

Торрент скачать бесплатно

  • support: webmaster@btracker.club
» » Мир Дикого запада / Западный мир / Westworld (2016) WEBRip (сезон 1, серии 1-10 из 10) Кубик в Кубе торрент скачать бесплатно


    Мир Дикого запада / Западный мир / Westworld (2016) WEBRip (сезон 1, серии 1-10 из 10) Кубик в Кубе торрент скачать бесплатно

    Дата: 10-01-2017, 05:00 | .torrent скачали: 220

    Мир Дикого запада / Западный мир / Westworld (2016) WEBRip (сезон 1, серии 1-10 из 10) Кубик в КубеПроизводство: США/Bad Robot, Jerry Weintraub Productions, Kilter Films
    Жанр: фантастика, триллер, вестерн
    Режиссер: Джонатан Нолан, Джонни Кэмпбелл, Ричард Дж.
    Актеры: Энтони Хопкинс, Эд Харрис, Ивэн Рэйчел Вуд, Джеймс Марсден, Тэнди Ньютон, Джеффри Райт, Тесса Томпсон, Джимми Симпсон, Родриго Санторо, Шеннон Мари Вудворд и др.

    Описание

    В футуристическом парке развлечений андроиды на фоне для исторических декораций становятся рабами людей, выполняя рутинные задания, пока в один момент сбой в программе не превращает их в опасных убийц.

    Дата мировой премьеры: 2 октября 2016
    Релиз от: K.E.N(NNM-CLUB)
    Продолжительность: ~00: 56: 00 серия (1 серия - 01: 11: 30; 10 серия - 01: 29: 53)
    Качество видео: WEBRip
    Перевод: двухголосый закадровый, профессиональный -Кубик в Кубе (нецензурная лексика)
    Реклама: присутствуют аудио вставки рекламы
    Видео: XviD, 720x400 (16: 9), ~1200 kbps
    Аудио: MP3, 48, 0 kHz, 2 ch, 128 kbps
    Формат : AVI
    Формат/Информация : Audio Video Interleave
    Размер файла : 652 Мбайт
    Продолжительность : 1 ч. 8 м.
    Общий поток : 1338 Кбит/сек
    Программа кодирования : VirtualDubMod 1.5.10.3 |www.virtualdub-fr.org|| (build 2550/release)
    Библиотека кодирования : VirtualDubMod build 2550/release
    Видео
    Идентификатор : 0
    Формат : MPEG-4 Visual
    Профиль формата : Advanced Simple@L5
    Параметр BVOP формата : 1
    Параметр QPel формата : Нет
    Параметр GMC формата : Без точки перехода
    Параметр матрицы формата : Выборочная
    Идентификатор кодека : XVID
    Идентификатор кодека/Подсказка : XviD
    Продолжительность : 1 ч. 8 м.
    Битрейт : 1201 Кбит/сек
    Ширина : 720 пикселей
    Высота : 400 пикселей
    Соотношение сторон : 16: 9
    Частота кадров : 23, 976 (24000/1001) кадра/сек
    Цветовое пространство : YUV
    Субдискретизация насыщенности : 4: 2: 0
    Битовая глубина : 8 бит
    Тип развёртки : Прогрессивная
    Метод сжатия : С потерями
    Бит/(Пиксели*Кадры) : 0.174
    Размер потока : 585 Мбайт (90%)
    Библиотека кодирования : XviD 73
    Аудио
    Идентификатор : 1
    Формат : MPEG Audio
    Версия формата : Version 1
    Профиль формата : Layer 3
    Идентификатор кодека : 55
    Идентификатор кодека/Подсказка : MP3
    Продолжительность : 1 ч. 8 м.
    Вид битрейта : Постоянный
    Битрейт : 128 Кбит/сек
    Каналы : 2 канала
    Частота : 48, 0 КГц
    Метод сжатия : С потерями
    Размер потока : 62, 3 Мбайт (10%)
    Выравнивание : Соединение по промежуткам
    Продолжительность промежутка : 42 мс. (1, 00 видеокадр)
    Время предзагрузки промежутка : 504 мс.
    Библиотека кодирования : LAME3.99r
    Настройки программы : -m s -V 4 -q 2 -lowpass 17 -b 128


    Скриншоты для ознакомления




    Мир Дикого запада/Западный мир/Westworld (2016) WEBRip (сезон 1, серии 1-10 из 10) Кубик в Кубе
    Рейтинг →
     (голосов: 1, оценка 5/5, голосовать можно 1 раз )

    Другие торренты по теме:

  • Six-Guns [3D] 2.9.0h - Исследуйте безграничные просторы Дикого Запада [Ru] скачать через торрент бесплатно
  • Западный мир / Мир Дикого Запада / Westworld (1973) BDRip [H.264 / 720p-LQ] скачать через торрент бесплатно
  • Мир Дикого запада / Западный мир / Westworld (2016) WEB-DLRip (сезон 1, серии 1 из 10) NewStudio (обновляемая)
  • Мир Дикого запада / Западный мир / Westworld (2016) HDTV [H.264 / 1080p-LQ] (сезон 1, серия 1 из 10) Кравец (обновляемая)
  • Мир Дикого запада / Западный мир / Westworld (2016) HDTVRip [H.264 / 720p-LQ] (сезон 1, серия 1 из 10) Кравец (обновляемая)
  • Мир Дикого запада / Западный мир / Westworld (2016) HDTVrip (сезон 1, серии 1 из 10) OMSKBIRD (обновляемая)
  • Мир Дикого запада / Западный мир / Westworld (2016) HDTVrip [H.264 / 720p-LQ] (сезон 1, серии 1 из 10) OMSKBIRD (обновляемая)
  • Мир Дикого запада / Западный мир / Westworld (2016) HDTVRip (сезон 1, серии 1 из 10) Кравец (обновляемая)


    • Комментарии (0):

      Информация

      Информация

        Посетители, находящиеся в группе Гости, не могут оставлять комментарии в данной новости.

        ↓ Меню




        ↓ Опрос

        Вы добавили сайт в закладки?
        Да
        Нет


        Top 10 за месяц (Программы)