.
Авторизация | Регистрация
Хочешь лучшие торренты? Добавь свой email!
Добавить

Торрент скачать бесплатно

  • support: webmaster@btracker.club
» » Крид 2 / Creed II (2018) BDRip [H.264 / 1080p-LQ] [hand made 16:9] торрент скачать бесплатно


    Крид 2 / Creed II (2018) BDRip [H.264 / 1080p-LQ] [hand made 16:9] торрент скачать бесплатно

    Опубликовал: fregat | Дата: 17-03-2019, 05:01 | .torrent скачали: 0

    Крид 2 / Creed II (2018) BDRip [H.264 / 1080p-LQ] [hand made 16:9]Производство: США/Metro-Goldwyn-Mayer Studios, New Line Cinema, Warner Bros.
    Жанр: Драма, спорт
    Режиссер: Стивен Кейпл мл.

    Актеры
    Майкл Б. Джордан, Сильвестр Сталлоне, Тесса Томпсон, Филисия Рашад, Дольф Лундгрен, Флориан Мунтяну, Расселл Хорнсби, Вуд Харрис, Майло Вентимилья, Робби Джонс

    Описание

    Жизнь Адониса Крида превратилась в череду компромиссов. Пока он разрывается между долгом и тренировками к следующему большому бою, судьба готовит ему новую невыполнимую миссию. Будущий противник тесно связан с историей его семьи, что лишь повышает ставки перед предстоящим выходом на ринг. Рокки Бальбоа всегда будет на стороне Крида, и вместе они выйдут на битву с призраками их общего прошлого, выяснят, за что действительно стоит сражаться, и поймут, что нет ничего дороже семьи. Нужно вернуться к истокам, чтобы вспомнить, что именно сделало тебя чемпионом, и что, куда бы ты не бежал, от себя все равно не скрыться.

    Возраст: 16+ (зрителям, достигшим 16 лет)
    Рейтинг MPAA: PG-13 (детям до 13 лет просмотр нежелателен)
    Дата мировой премьеры: 14 ноября 2018
    Дата российской премьеры: 10 января 2019
    Продолжительность: 02: 10: 00
    Качество видео: BDRip
    Перевод: Дублированный (лицензия BD EUR)
    Субтитры: Русские (форс., полные), английские (форс., полные)
    Видео: AVC/H.264, 1920x1080, ~ 7 Mbps
    Аудио #1: AC3, 6 ch, 640 Kbps - Русский
    Аудио #2: AC3, 6 ch, 640 Kbps - Английский

    x264 info: frame I: 1230 Avg QP: 16.15 size: 166863
    x264 info: frame P: 44877 Avg QP: 18.04 size: 72930
    x264 info: frame B: 140917 Avg QP: 19.12 size: 23720
    Unique ID : 252312920949711843092179303117863760576 (0xBDD1B37382724AA6A7F2F9E8C733B2C0)
    Complete name : D: TempNNMКрид 2.2018.FS.mkv
    Format : Matroska
    Format version : Version 4/Version 2
    File size : 7.52 GiB
    Duration : 2h 10mn
    Overall bit rate : 8 278 Kbps
    Movie name : Creed.II.2018.x264.Hybrid.BDRip.1080p.Rus.Eng
    Encoded date : UTC 2019-03-16 05: 40: 32
    Writing application : mkvmerge v9.8.0 (\'Kuglblids\') 64bit
    Writing library : libebml v1.3.4 + libmatroska v1.4.5
    Video
    ID : 1
    Format : AVC
    Format/Info : Advanced Video Codec
    Format profile : High@L4.1
    Format settings, CABAC : Yes
    Format settings, ReFrames : 4 frames
    Codec ID : V_MPEG4/ISO/AVC
    Duration : 2h 10mn
    Bit rate : 7 000 Kbps
    Width : 1 920 pixels
    Height : 1 080 pixels
    Display aspect ratio : 16: 9
    Frame rate mode : Constant
    Frame rate : 23.976 fps
    Color space : YUV
    Chroma subsampling : 4: 2: 0
    Bit depth : 8 bits
    Scan type : Progressive
    Bits/(Pixel*Frame) : 0.141
    Stream size : 6.20 GiB (83%)
    Writing library : x264 core 157 r2935 545de2f
    Encoding settings : cabac=1/ref=4/deblock=1: -3: -3/analyse=0x3: 0x113/me=umh/subme=10/psy=1/psy_rd=1.05: 0.10/mixed_ref=1/me_range=24/chroma_me=1/trellis=2/8x8dct=1/cqm=0/deadzone=21, 11/fast_pskip=0/chroma_qp_offset=-3/threads=5/lookahead_threads=1/sliced_threads=0/nr=0/decimate=0/interlaced=0/bluray_compat=0/constrained_intra=0/bframes=6/b_pyramid=2/b_adapt=2/b_bias=0/direct=1/weightb=1/open_gop=0/weightp=2/keyint=240/keyint_min=24/scenecut=40/intra_refresh=0/rc=2pass/mbtree=0/bitrate=7000/ratetol=1.0/qcomp=0.70/qpmin=3/qpmax=69/qpstep=4/cplxblur=20.0/qblur=0.5/ip_ratio=1.40/pb_ratio=1.30/aq=2: 1.00
    Default : Yes
    Forced : No
    Audio #1
    ID : 2
    Format : AC-3
    Format/Info : Audio Coding 3
    Mode extension : CM (complete main)
    Format settings, Endianness : Big
    Codec ID : A_AC3
    Duration : 2h 10mn
    Bit rate mode : Constant
    Bit rate : 640 Kbps
    Channel(s) : 6 channels
    Channel positions : Front: L C R, Side: L R, LFE
    Sampling rate : 48.0 KHz
    Bit depth : 16 bits
    Compression mode : Lossy
    Stream size : 595 MiB (8%)
    Language : Russian
    Default : Yes
    Forced : No
    Audio #2
    ID : 3
    Format : AC-3
    Format/Info : Audio Coding 3
    Mode extension : CM (complete main)
    Format settings, Endianness : Big
    Codec ID : A_AC3
    Duration : 2h 10mn
    Bit rate mode : Constant
    Bit rate : 640 Kbps
    Channel(s) : 6 channels
    Channel positions : Front: L C R, Side: L R, LFE
    Sampling rate : 48.0 KHz
    Bit depth : 16 bits
    Compression mode : Lossy
    Stream size : 595 MiB (8%)
    Language : English
    Default : No
    Forced : No
    Text #1
    ID : 4
    Format : UTF-8
    Codec ID : S_TEXT/UTF8
    Codec ID/Info : UTF-8 Plain Text
    Title : Forced
    Language : Russian
    Default : No
    Forced : No
    Text #2
    ID : 5
    Format : UTF-8
    Codec ID : S_TEXT/UTF8
    Codec ID/Info : UTF-8 Plain Text
    Title : Full-length
    Language : Russian
    Default : No
    Forced : No
    Text #3
    ID : 6
    Format : UTF-8
    Codec ID : S_TEXT/UTF8
    Codec ID/Info : UTF-8 Plain Text
    Title : Forced
    Language : English
    Default : No
    Forced : No
    Text #4
    ID : 7
    Format : UTF-8
    Codec ID : S_TEXT/UTF8
    Codec ID/Info : UTF-8 Plain Text
    Title : Full-length
    Language : English
    Default : No
    Forced : No

    Скриншоты для ознакомления



    Все одноименные релизы в Клубе Время раздачи: 24/7 (до появления первых 3-5 скачавших)


    Крид 2/Creed II (2018) BDRip [H.264/1080p-LQ] [hand made 16:9]
    Рейтинг →
     (голосов: 1, оценка 3/5, голосовать можно 1 раз )

    Другие торренты по теме:

  • Крид: Наследие Рокки / Creed (2015) CamRip [VO] скачать через торрент бесплатно
  • Исчезновение Элис Крид / The Disappearance of Alice Creed (2009) BDRip [H.264] скачать через торрент бесплатно
  • Крид: Наследие Рокки / Creed (2015) DVDScr [VO] скачать через торрент бесплатно
  • Крид: Наследие Рокки / Creed (2015) DVDScr скачать через торрент бесплатно
  • Крид: Наследие Рокки / Creed (2015) DVDRip [H.264] скачать через торрент бесплатно
  • Крид: Наследие Рокки / Creed (2015) DVD5 [hand made] скачать через торрент бесплатно
  • VA - Крид: Наследие Рокки / Creed (Original Motion Picture Soundtrack) (2015) [MP3|320 кб / с] <Soundtrack, Hip-Hop, Rap, R&B, Soul>
  • Крид: Наследие Рокки / Creed (2015) HDRip


    • Комментарии (0):

      Информация

      Информация

        Посетители, находящиеся в группе Гости, не могут оставлять комментарии в данной новости.

        ↓ Меню




        ↓ Опрос

        Вы добавили сайт в закладки?
        Да
        Нет


        Top 10 за месяц (Другое)