.
Авторизация | Регистрация

Торрент скачать бесплатно

  • support: webmaster@btracker.club
» » Робин Гуд: Начало / Robin Hood (2018) BDRip [H.264 / 1080p] [hand made 16:9] торрент скачать бесплатно


    Робин Гуд: Начало / Robin Hood (2018) BDRip [H.264 / 1080p] [hand made 16:9] торрент скачать бесплатно

    Дата: 24-02-2019, 05:00 | .torrent скачали: 0

    Робин Гуд: Начало / Robin Hood (2018) BDRip [H.264 / 1080p] [hand made 16:9]Производство: США, Summit Entertainment, Appian Way, Pixoloid Studios
    Жанр: Боевик, Триллер, Приключения
    Режиссер: Отто Батхёрст

    Актеры
    Тэрон Эджертон, Джейми Фокс, Бен Мендельсон, Ив Хьюсон, Джейми Дорнан, Тим Минчин, Пол Андерсон, Ф. Мюррэй Абрахам, Йен Пек, Корнелиус Бут

    Описание

    Ветеран Крестового похода лорд Робин Локсли возвращается в родной город Ноттингем и видит, что он погряз в коррупции. Робин присоединяется к группе Весёлых Шервудских Разбойников и становится знаменитым благородным вором, продолжая при этом вести светскую жизнь для слежки за ноттингемским шерифом.

    Возраст: 16+ (зрителям, достигшим 16 лет)
    Рейтинг MPAA: PG-13 (детям до 13 лет просмотр нежелателен)
    Дата мировой премьеры: 20 ноября 2018
    Дата российской премьеры: 29 ноября 2018, Централ Партнершип
    Продолжительность: 01: 56: 08
    Качество видео: BDRip
    Перевод: Дублированный (iTunes)
    Субтитры: Английские
    Видео: AVC/H.264, 1920x1080, ~10 Mbps
    Аудио #1: AC3, 6 ch, 384 Kbps - Русский
    Аудио #2: AC3, 6 ch, 640 Kbps - Английский

    Unique ID : 215465639792268983463568023990682529657 (0xA2192C3A68AB1288BDD8CD06FEC42F79)
    Complete name : D: TempNNMРобин Гуд Начало.FS.mkv
    Format : Matroska
    Format version : Version 4/Version 2
    File size : 8.94 GiB
    Duration : 1h 56mn
    Overall bit rate : 11.0 Mbps
    Encoded date : UTC 2019-02-22 16: 52: 31
    Writing application : mkvmerge v9.8.0 (\'Kuglblids\') 64bit
    Writing library : libebml v1.3.4 + libmatroska v1.4.5
    Video
    ID : 1
    Format : AVC
    Format/Info : Advanced Video Codec
    Format profile : High@L4.1
    Format settings, CABAC : Yes
    Format settings, ReFrames : 4 frames
    Codec ID : V_MPEG4/ISO/AVC
    Duration : 1h 56mn
    Bit rate : 10 000 Kbps
    Width : 1 920 pixels
    Height : 1 080 pixels
    Display aspect ratio : 16: 9
    Frame rate mode : Constant
    Frame rate : 23.976 fps
    Color space : YUV
    Chroma subsampling : 4: 2: 0
    Bit depth : 8 bits
    Scan type : Progressive
    Bits/(Pixel*Frame) : 0.201
    Stream size : 7.93 GiB (89%)
    Writing library : x264 core 157 r2935 545de2f
    Encoding settings : cabac=1/ref=4/deblock=1: -3: -2/analyse=0x3: 0x113/me=umh/subme=9/psy=1/psy_rd=1.05: 0.10/mixed_ref=1/me_range=24/chroma_me=1/trellis=2/8x8dct=1/cqm=0/deadzone=21, 11/fast_pskip=0/chroma_qp_offset=-3/threads=5/lookahead_threads=1/sliced_threads=0/nr=0/decimate=0/interlaced=0/bluray_compat=0/constrained_intra=0/bframes=6/b_pyramid=2/b_adapt=2/b_bias=0/direct=1/weightb=1/open_gop=0/weightp=2/keyint=240/keyint_min=24/scenecut=40/intra_refresh=0/rc=2pass/mbtree=0/bitrate=10000/ratetol=1.0/qcomp=0.70/qpmin=3/qpmax=69/qpstep=4/cplxblur=20.0/qblur=0.5/ip_ratio=1.40/pb_ratio=1.30/aq=2: 1.00
    Default : Yes
    Forced : No
    Audio #1
    ID : 2
    Format : AC-3
    Format/Info : Audio Coding 3
    Mode extension : CM (complete main)
    Format settings, Endianness : Big
    Codec ID : A_AC3
    Duration : 1h 56mn
    Bit rate mode : Constant
    Bit rate : 384 Kbps
    Channel(s) : 6 channels
    Channel positions : Front: L C R, Side: L R, LFE
    Sampling rate : 48.0 KHz
    Bit depth : 16 bits
    Compression mode : Lossy
    Stream size : 319 MiB (3%)
    Language : Russian
    Default : Yes
    Forced : No
    Audio #2
    ID : 3
    Format : AC-3
    Format/Info : Audio Coding 3
    Mode extension : CM (complete main)
    Format settings, Endianness : Big
    Codec ID : A_AC3
    Duration : 1h 56mn
    Bit rate mode : Constant
    Bit rate : 640 Kbps
    Channel(s) : 6 channels
    Channel positions : Front: L C R, Side: L R, LFE
    Sampling rate : 48.0 KHz
    Bit depth : 16 bits
    Compression mode : Lossy
    Stream size : 532 MiB (6%)
    Language : English
    Default : No
    Forced : No
    Text
    ID : 4
    Format : UTF-8
    Codec ID : S_TEXT/UTF8
    Codec ID/Info : UTF-8 Plain Text
    Title : SDH
    Language : English
    Default : No
    Forced : No

    Скриншоты для ознакомления



    Все одноименные релизы в Клубе
    Время раздачи: 24/7 (до появления первых 3-5 скачавших)


    Робин Гуд: Начало/Robin Hood (2018) BDRip [H.264/1080p] [hand made 16:9]
    Рейтинг →
     (голосов: 1, оценка 5/5, голосовать можно 1 раз )

    Другие торренты по теме:

  • Робин Гуд: Начало / Robin Hood (2018) TS [MVO] [AD]
  • Робин Гуд: Начало / Robin Hood (2018) WEB-DLRip [H.264 / 1080p-LQ] [Line, AD]
  • Робин Гуд: Начало / Robin Hood (2018) WEB-DLRip [Line, AD]
  • Робин Гуд: Начало / Robin Hood (2018) WEB-DLRip [H.264 / 720p-LQ] [Line, AD]
  • Робин Гуд: Начало / Robin Hood (2018) WEB-DL [H.264 / 1080p-LQ] [UKR, EN / Eng Sub]
  • Робин Гуд: Начало / Robin Hood (2018) WEB-DL [H.264 / 1080p] [UKR, EN / Eng Sub]
  • Робин Гуд: Начало / Robin Hood (2018) WEB-DL [H.264 / 1080p-LQ] [MVO]
  • Робин Гуд: Начало / Robin Hood (2018) HDRip [MVO]


    • Комментарии (0):

      Информация

      Информация

        Посетители, находящиеся в группе Гости, не могут оставлять комментарии в данной новости.

        ↓ Меню




        ↓ Опрос

        Вы добавили сайт в закладки?
        Да
        Нет


        Top 10 за месяц (Другое)