.
Авторизация | Регистрация
Хочешь лучшие торренты? Добавь свой email!
Добавить

Торрент скачать бесплатно

  • support: webmaster@btracker.club
» » Europe - Almost Unplugged (live) от ALEXnROCK (2008) WEBRip [H.264 / 1080p-LQ][upscale] торрент скачать бесплатно


    Europe - Almost Unplugged (live) от ALEXnROCK (2008) WEBRip [H.264 / 1080p-LQ][upscale] торрент скачать бесплатно

    Опубликовал: fregat | Дата: 18-02-2019, 05:01 | .torrent скачали: 0

    Europe - Almost Unplugged (live) от ALEXnROCK (2008) WEBRip [H.264 / 1080p-LQ][upscale]Жанр: Rock
    Год выпуска: 2008

    Описание

    Клевый акустический концерт шведской группы. Ремастеринг делал с лицензионного двд. Добавил звук с CD. Да пребудет с нами качественная музыка!. Все лучшее для вас. ALEXnROCK
    Продолжительность: 01: 23: 47
    Качество: WEBRip
    Видео : AVC/H.264, 1920x1080 (16x9) 5300 kbps
    Аудио 1 : PCM 2.0, 48 KHz, 1536 kbps
    Аудио 2 : DTS 5.1, 48Hz 778Kbps
    Аудио 3 : Mp3 320 Kbps 48 Hz
    Треклист:
    1. Got To Have Faith
    2. Forever Travelling
    3. Devil Sings The Blues
    4. Wish You Were Here (PINK FLOYD)
    5. Dreamer
    6. Love To Love (UFO)
    7. The Final Countdown
    8. Yesterday\'s News
    9. Since I\'ve Been Lovin\' You (LED ZEPPELIN)
    10. Hero
    11. Suicide (THIN LIZZY)
    12. Memories
    13. Superstitious
    14. Rock The Night

    Общее
    Уникальный идентификатор : 192842291629691596801662358805838148589 (0x9114130BD699E585A4EACBD67F39B3ED)
    Полное имя : Europe - Almost Unplugged ALEXnROCK.mkv
    Формат : Matroska
    Версия формата : Version 4/Version 2
    Размер файла : 5, 33 Гбайт
    Продолжительность : 1 ч. 23 м.
    Общий поток : 9114 Кбит/сек
    Дата кодирования : UTC 2018-10-15 06: 45: 06
    Программа кодирования : mkvmerge v9.8.0 (\'Kuglblids\') 64bit
    Библиотека кодирования : libebml v1.3.4 + libmatroska v1.4.5
    Видео
    Идентификатор : 1
    Формат : AVC
    Формат/Информация : Advanced Video Codec
    Профиль формата : High@L4
    Настройки формата : CABAC/4 Ref Frames
    Параметр CABAC формата : Да
    Параметр RefFrames формата : 4 кадра
    Идентификатор кодека : V_MPEG4/ISO/AVC
    Продолжительность : 1 ч. 23 м.
    Битрейт : 6500 Кбит/сек
    Ширина : 1920 пикселей
    Высота : 1080 пикселей
    Соотношение сторон : 16: 9
    Режим частоты кадров : Постоянный
    Частота кадров : 30, 000 кадров/сек
    Цветовое пространство : YUV
    Субдискретизация насыщенности : 4: 2: 0
    Битовая глубина : 8 бит
    Тип развёртки : Прогрессивная
    Бит/(Пиксели*Кадры) : 0.104
    Размер потока : 3, 80 Гбайт (71%)
    Библиотека кодирования : x264 core 146 r2538 121396c
    Настройки программы : cabac=1/ref=3/deblock=1: -1: -1/analyse=0x3: 0x133/me=hex/subme=5/psy=1/psy_rd=1.00: 0.15/mixed_ref=0/me_range=16/chroma_me=1/trellis=1/8x8dct=1/cqm=0/deadzone=21, 11/fast_pskip=1/chroma_qp_offset=-1/threads=12/lookahead_threads=3/sliced_threads=0/nr=0/decimate=1/interlaced=0/bluray_compat=0/constrained_intra=0/bframes=3/b_pyramid=2/b_adapt=1/b_bias=0/direct=3/weightb=1/open_gop=0/weightp=2/keyint=250/keyint_min=25/scenecut=40/intra_refresh=0/rc_lookahead=40/rc=2pass/mbtree=1/bitrate=6500/ratetol=1.0/qcomp=0.60/qpmin=0/qpmax=69/qpstep=4/cplxblur=20.0/qblur=0.5/ip_ratio=1.40/aq=1: 1.00
    Default : Да
    Forced : Нет
    Аудио #1
    Идентификатор : 2
    Формат : PCM
    Идентификатор кодека : A_PCM/INT/LIT
    Продолжительность : 1 ч. 23 м.
    Вид битрейта : Постоянный
    Битрейт : 1536 Кбит/сек
    Каналы : 2 канала
    Частота : 48, 0 КГц
    Частота кадров : 32, 000 кадра/сек (1500 SPF)
    Битовая глубина : 16 бит
    Размер потока : 921 Мбайт (17%)
    Default : Да
    Forced : Нет
    Аудио #2
    Идентификатор : 3
    Формат : DTS
    Формат/Информация : Digital Theater Systems
    Режим : 16
    Параметр Endianness формата : Big
    Идентификатор кодека : A_DTS
    Продолжительность : 1 ч. 23 м.
    Вид битрейта : Постоянный
    Битрейт : 755 Кбит/сек
    Каналы : 6 каналов
    Расположение каналов : Front: L C R, Side: L R, LFE
    Частота : 48, 0 КГц
    Частота кадров : 93, 750 кадра/сек (512 SPF)
    Битовая глубина : 16 бит
    Метод сжатия : С потерями
    Размер потока : 452 Мбайт (8%)
    Default : Нет
    Forced : Нет
    Аудио #3
    Идентификатор : 4
    Формат : MPEG Audio
    Версия формата : Version 1
    Профиль формата : Layer 3
    Идентификатор кодека : A_MPEG/L3
    Идентификатор кодека/Подсказка : MP3
    Продолжительность : 1 ч. 23 м.
    Вид битрейта : Постоянный
    Битрейт : 320 Кбит/сек
    Каналы : 2 канала
    Частота : 48, 0 КГц
    Частота кадров : 41, 667 кадра/сек (1152 SPF)
    Метод сжатия : С потерями
    Размер потока : 192 Мбайт (4%)
    Библиотека кодирования : LAME3.99r
    Настройки программы : -m s -V 4 -q 2 -lowpass 20.5
    Default : Нет
    Forced : Нет

    Скриншоты для ознакомления



    Все одноименные релизы в Клубе
    Время раздачи: 247 (до появления первых 3-5 скачавших)


    Europe - Almost Unplugged (live) от ALEXnROCK (2008) WEBRip [H.264/1080p-LQ][upscale]
    Рейтинг →
     (голосов: 1, оценка 4/5, голосовать можно 1 раз )

    Другие торренты по теме:

  • Прошивка Android KitKat 4.4.2 (Официальное обновление 01010 Europe (Android 4.4.2) для Alcatel One Touch Idol X+ (04.09.2014) <Ru>) скачать через торрент бесплатно
  • Garmin: City Navigator Europe NTU (Unicode) 2015.30 (октябрь 2014) <En> скачать через торрент бесплатно
  • Deep Purple - Made In Europe (1976) / 1990, Metal Blade Records / [FLAC|Lossless]<Hard Rock>
  • Проект ProShow Producer - Travel in Europe [PSH]
  • Garmin: City Navigator Europe NT 2015.40 (по регионам) (февраль 2015) <En> скачать через торрент бесплатно
  • Garmin: City Navigator Europe NTU 2015.40 (по регионам) [En] скачать через торрент бесплатно
  • Europe - Original Album Classics 1983-1991 (2015) 5CD [FLAC|Lossless]<Hard Rock, Arena Rock> скачать через торрент бесплатно
  • Europe - 15 альбомов (1983 - 2015) [FLAC|Lossless]<Hard Rock> скачать через торрент бесплатно


    • Комментарии (0):

      Информация

      Информация

        Посетители, находящиеся в группе Гости, не могут оставлять комментарии в данной новости.

        ↓ Меню




        ↓ Опрос

        Вы добавили сайт в закладки?
        Да
        Нет


        Top 10 за месяц (Другое)