.
Авторизация | Регистрация
Хочешь лучшие торренты? Добавь свой email!
Добавить

Торрент скачать бесплатно

  • support: webmaster@btracker.club
» » Бегущий по лезвию 2049 / Blade Runner 2049 (2017) Hybrid [H.264 / 1080p] [hand made 16:9] [Локализованная версия] торрент скачать бесплатно


    Бегущий по лезвию 2049 / Blade Runner 2049 (2017) Hybrid [H.264 / 1080p] [hand made 16:9] [Локализованная версия] торрент скачать бесплатно

    Опубликовал: fregat | Дата: 18-02-2019, 05:01 | .torrent скачали: 1

    Бегущий по лезвию 2049 / Blade Runner 2049 (2017) Hybrid [H.264 / 1080p] [hand made 16:9] [Локализованная версия]Производство: США, Великобритания, Венгрия, Канада/Alcon Entertainment, Columbia Pictures Corporation, Sony, Torridon Films, 16: 14 Entertainment, Scott Free Productions, Babieka, Thunderbird Entertainment
    Жанр: Фантастика, Триллер, Драма, Детектив
    Режиссер: Дени Вильнёв
    Продюсер: Йель Бадик, Дэна Белкастро, Билл Карраро и другие

    Актеры
    Райан Гослинг, Харрисон Форд, Ана де Армас, Сильвия Хукс, Робин Райт, Маккензи Дэвис, Карла Юри, Ленни Джеймс, Дэйв Батиста, Джаред Лето и другие

    Описание

    В недалеком будущем мир населен людьми и репликантами, созданными выполнять самую тяжелую работу. Работа офицера полиции Кей — держать репликантов под контролем в условиях нарастающего напряжения… Пока он случайно не становится обладателем секретной информации, которая ставит под угрозу существование всего человечества. Желая найти ключ к разгадке, Кей решает разыскать Рика Декарда, бывшего офицера специального подразделения полиции Лос-Анджелеса, который бесследно исчез много лет назад.

    Возраст: 18+ (зрителям, достигшим 18 лет. запрещено для детей)
    Рейтинг MPAA: R (лицам до 17 лет обязательно присутствие взрослого)
    Релиз от: BlueBird
    Продолжительность: 02: 43: 46
    Качество видео: Hybrid
    Перевод: Дублированный (Лицензия BD EUR), авторский
    Субтитры: Русские (Forced, Full), Украинские (Forced, Full), Английские (Full, SDH)
    Видео: AVC/H.264, 1920x1080, ~16 Mbps
    Аудио #1: AC3, 6 ch, 640 Kbps - Дублированный - Русский
    Аудио #2: DTS, 6 ch, 1509 Kbps - Авторский (Ю.Сербин) - Русский
    Аудио #3: DTS, 6 ch, 1510 Kbps - Авторский (Д.Есарев) - Русский
    Аудио #4: DTS, 6 ch, 1509 Kbps - Авторский (Ю.Живов) - Русский
    Аудио #5: DTS, 6 ch, 1509 Kbps - Авторский (Л.Володарский) - Русский
    Аудио #6: AC3, 6 ch, 448 Kbps - Авторский (А.Гаврилов) - Русский
    Аудио #7: AC3, 2 ch, 192 Kbps - Дублированный (iTunes) - Украинский
    Аудио #8: DTS, 6 ch, 1509 Kbps - Оригинал - Английский

    Общее
    Уникальный идентификатор : 223223482537654224700937081741446044203 (0xA7EF47680514E5ED9E0F25C7FBD55A2B)
    Полное имя : D: NNM-Club ReleasesBlade.Runner.2049.2017.1080pBlade.Runner.2049.2017.Open.Matte.RUS.1080p-BLUEBIRD.mkv
    Формат : Matroska
    Версия формата : Version 4
    Размер файла : 28, 3 Гбайт
    Продолжительность : 2 ч. 43 м.
    Общий поток : 24, 7 Мбит/сек
    Название фильма : Blade Runner 2049 (2017)
    Дата кодирования : UTC 2019-01-26 07: 08: 12
    Программа кодирования : mkvmerge v30.1.0 (\'Forever And More\') 64-bit
    Библиотека кодирования : libebml v1.3.6 + libmatroska v1.4.9
    Attachments : poster
    Видео
    Идентификатор : 1
    Формат : AVC
    Формат/Информация : Advanced Video Codec
    Профиль формата : High@L4.1
    Настройки формата : CABAC/4 Ref Frames
    Параметр CABAC формата : Да
    Параметр RefFrames формата : 4 кадра
    Идентификатор кодека : V_MPEG4/ISO/AVC
    Продолжительность : 2 ч. 43 м.
    Битрейт : 16, 0 Мбит/сек
    Ширина : 1920 пикселей
    Высота : 1080 пикселей
    Соотношение сторон : 16: 9
    Режим частоты кадров : Постоянный
    Частота кадров : 23, 976 (24000/1001) кадра/сек
    Цветовое пространство : YUV
    Субдискретизация насыщенности : 4: 2: 0
    Битовая глубина : 8 бит
    Тип развёртки : Прогрессивная
    Бит/(Пиксели*Кадры) : 0.322
    Размер потока : 18, 3 Гбайт (65%)
    Заголовок : Open Matte
    Библиотека кодирования : x264 core 157 r2935 545de2f
    Настройки программы : cabac=1/ref=4/deblock=1: -3: -3/analyse=0x3: 0x133/me=umh/subme=11/psy=1/psy_rd=1.10: 0.00/mixed_ref=1/me_range=32/chroma_me=1/trellis=2/8x8dct=1/cqm=0/deadzone=21, 11/fast_pskip=1/chroma_qp_offset=-2/threads=12/lookahead_threads=1/sliced_threads=0/nr=0/decimate=1/interlaced=0/bluray_compat=0/constrained_intra=0/bframes=8/b_pyramid=2/b_adapt=2/b_bias=0/direct=1/weightb=1/open_gop=0/weightp=2/keyint=240/keyint_min=23/scenecut=40/intra_refresh=0/rc_lookahead=40/rc=crf/mbtree=0/crf=15.5/qcomp=0.60/qpmin=0/qpmax=69/qpstep=4/vbv_maxrate=50000/vbv_bufsize=62500/crf_max=0.0/nal_hrd=none/filler=0/ip_ratio=1.40/pb_ratio=1.30/aq=1: 0.90
    Язык : Russian
    Default : Да
    Forced : Нет
    Цветовой диапазон : Limited
    Основные цвета : BT.709
    Характеристики трансфера : BT.709
    Коэффициенты матрицы : BT.709
    Аудио #1
    Идентификатор : 2
    Формат : AC-3
    Формат/Информация : Audio Coding 3
    Коммерческое название : Dolby Digital
    Идентификатор кодека : A_AC3
    Продолжительность : 2 ч. 43 м.
    Вид битрейта : Постоянный
    Битрейт : 640 Кбит/сек
    Каналы : 6 каналов
    Channel layout : L R C LFE Ls Rs
    Частота : 48, 0 КГц
    Частота кадров : 31, 250 кадров/сек (1536 SPF)
    Битовая глубина : 16 бит
    Метод сжатия : С потерями
    Размер потока : 748 Мбайт (3%)
    Заголовок : Dub
    Язык : Russian
    ServiceKind/String : Complete Main
    Default : Да
    Forced : Нет
    Аудио #2
    Идентификатор : 3
    Формат : DTS
    Формат/Информация : Digital Theater Systems
    Идентификатор кодека : A_DTS
    Продолжительность : 2 ч. 43 м.
    Вид битрейта : Постоянный
    Битрейт : 1509 Кбит/сек
    Каналы : 6 каналов
    Channel layout : C L R Ls Rs LFE
    Частота : 48, 0 КГц
    Частота кадров : 93, 750 кадра/сек (512 SPF)
    Битовая глубина : 16 бит
    Метод сжатия : С потерями
    Размер потока : 1, 72 Гбайт (6%)
    Заголовок : VO Serbin
    Язык : Russian
    Default : Нет
    Forced : Нет
    Аудио #3
    Идентификатор : 4
    Формат : DTS
    Формат/Информация : Digital Theater Systems
    Идентификатор кодека : A_DTS
    Продолжительность : 2 ч. 43 м.
    Вид битрейта : Постоянный
    Битрейт : 1510 Кбит/сек
    Каналы : 6 каналов
    Channel layout : C L R Ls Rs LFE
    Частота : 48, 0 КГц
    Частота кадров : 93, 750 кадра/сек (512 SPF)
    Битовая глубина : 24 бит
    Метод сжатия : С потерями
    Размер потока : 1, 72 Гбайт (6%)
    Заголовок : VO Esarev
    Язык : Russian
    Default : Нет
    Forced : Нет
    Аудио #4
    Идентификатор : 5
    Формат : DTS
    Формат/Информация : Digital Theater Systems
    Идентификатор кодека : A_DTS
    Продолжительность : 2 ч. 43 м.
    Вид битрейта : Постоянный
    Битрейт : 1509 Кбит/сек
    Каналы : 6 каналов
    Channel layout : C L R Ls Rs LFE
    Частота : 48, 0 КГц
    Частота кадров : 93, 750 кадра/сек (512 SPF)
    Битовая глубина : 16 бит
    Метод сжатия : С потерями
    Задержка видео : 9 мс.
    Размер потока : 1, 72 Гбайт (6%)
    Заголовок : VO Zhivov
    Язык : Russian
    Default : Нет
    Forced : Нет
    Аудио #5
    Идентификатор : 6
    Формат : DTS
    Формат/Информация : Digital Theater Systems
    Идентификатор кодека : A_DTS
    Продолжительность : 2 ч. 43 м.
    Вид битрейта : Постоянный
    Битрейт : 1509 Кбит/сек
    Каналы : 6 каналов
    Channel layout : C L R Ls Rs LFE
    Частота : 48, 0 КГц
    Частота кадров : 93, 750 кадра/сек (512 SPF)
    Битовая глубина : 16 бит
    Метод сжатия : С потерями
    Размер потока : 1, 72 Гбайт (6%)
    Заголовок : VO Volodarskiy
    Язык : Russian
    Default : Нет
    Forced : Нет
    Аудио #6
    Идентификатор : 7
    Формат : AC-3
    Формат/Информация : Audio Coding 3
    Коммерческое название : Dolby Digital
    Идентификатор кодека : A_AC3
    Продолжительность : 2 ч. 43 м.
    Вид битрейта : Постоянный
    Битрейт : 448 Кбит/сек
    Каналы : 6 каналов
    Channel layout : L R C LFE Ls Rs
    Частота : 48, 0 КГц
    Частота кадров : 31, 250 кадров/сек (1536 SPF)
    Битовая глубина : 16 бит
    Метод сжатия : С потерями
    Размер потока : 450 Мбайт (2%)
    Заголовок : VO Gavrilov
    Язык : Russian
    ServiceKind/String : Complete Main
    Default : Нет
    Forced : Нет
    Аудио #7
    Идентификатор : 8
    Формат : AC-3
    Формат/Информация : Audio Coding 3
    Коммерческое название : Dolby Digital
    Идентификатор кодека : A_AC3
    Продолжительность : 2 ч. 43 м.
    Вид битрейта : Постоянный
    Битрейт : 192 Кбит/сек
    Каналы : 2 канала
    Channel layout : L R
    Частота : 48, 0 КГц
    Частота кадров : 31, 250 кадров/сек (1536 SPF)
    Битовая глубина : 16 бит
    Метод сжатия : С потерями
    Размер потока : 224 Мбайт (1%)
    Заголовок : Dub
    Язык : Ukrainian
    ServiceKind/String : Complete Main
    Default : Нет
    Forced : Нет
    Аудио #8
    Идентификатор : 9
    Формат : DTS
    Формат/Информация : Digital Theater Systems
    Идентификатор кодека : A_DTS
    Продолжительность : 2 ч. 43 м.
    Вид битрейта : Постоянный
    Битрейт : 1509 Кбит/сек
    Каналы : 6 каналов
    Channel layout : C L R Ls Rs LFE
    Частота : 48, 0 КГц
    Частота кадров : 93, 750 кадра/сек (512 SPF)
    Битовая глубина : 24 бит
    Метод сжатия : С потерями
    Размер потока : 1, 72 Гбайт (6%)
    Заголовок : Original
    Язык : English
    Default : Нет
    Forced : Нет
    Текст #1
    Идентификатор : 10
    Формат : UTF-8
    Идентификатор кодека : S_TEXT/UTF8
    Идентификатор кодека/Информация : UTF-8 Plain Text
    Продолжительность : 1 ч. 20 м.
    Битрейт : 0 бит/сек
    ElementCount : 5
    Размер потока : 250 байт (0%)
    Заголовок : Forced
    Язык : Russian
    Default : Нет
    Forced : Нет
    Текст #2
    Идентификатор : 11
    Формат : UTF-8
    Идентификатор кодека : S_TEXT/UTF8
    Идентификатор кодека/Информация : UTF-8 Plain Text
    Продолжительность : 2 ч. 40 м.
    Битрейт : 38 бит/сек
    ElementCount : 1013
    Размер потока : 44, 6 Кбайт (0%)
    Язык : Russian
    Default : Нет
    Forced : Нет
    Текст #3
    Идентификатор : 12
    Формат : UTF-8
    Идентификатор кодека : S_TEXT/UTF8
    Идентификатор кодека/Информация : UTF-8 Plain Text
    Продолжительность : 1 ч. 19 м.
    Битрейт : 1 бит/сек
    ElementCount : 23
    Размер потока : 979 байт (0%)
    Заголовок : Forced
    Язык : Ukrainian
    Default : Нет
    Forced : Нет
    Текст #4
    Идентификатор : 13
    Формат : UTF-8
    Идентификатор кодека : S_TEXT/UTF8
    Идентификатор кодека/Информация : UTF-8 Plain Text
    Продолжительность : 2 ч. 41 м.
    Битрейт : 39 бит/сек
    ElementCount : 1050
    Размер потока : 46, 4 Кбайт (0%)
    Язык : Ukrainian
    Default : Нет
    Forced : Нет
    Текст #5
    Идентификатор : 14
    Формат : UTF-8
    Идентификатор кодека : S_TEXT/UTF8
    Идентификатор кодека/Информация : UTF-8 Plain Text
    Продолжительность : 2 ч. 26 м.
    Битрейт : 24 бит/сек
    ElementCount : 972
    Размер потока : 26, 7 Кбайт (0%)
    Язык : English
    Default : Нет
    Forced : Нет
    Текст #6
    Идентификатор : 15
    Формат : UTF-8
    Идентификатор кодека : S_TEXT/UTF8
    Идентификатор кодека/Информация : UTF-8 Plain Text
    Продолжительность : 2 ч. 29 м.
    Битрейт : 31 бит/сек
    ElementCount : 1354
    Размер потока : 33, 9 Кбайт (0%)
    Заголовок : SDH
    Язык : English
    Default : Нет
    Forced : Нет
    Меню
    00: 00: 00.000 : en: 00: 00: 00.000
    00: 12: 36.172 : en: 00: 12: 36.172
    00: 23: 29.283 : en: 00: 23: 29.283
    00: 37: 00.885 : en: 00: 37: 00.885
    00: 42: 50.318 : en: 00: 42: 50.318
    00: 49: 24.503 : en: 00: 49: 24.503
    00: 58: 35.554 : en: 00: 58: 35.554
    01: 04: 10.680 : en: 01: 04: 10.680
    01: 15: 47.293 : en: 01: 15: 47.293
    01: 25: 12.482 : en: 01: 25: 12.482
    01: 36: 15.061 : en: 01: 36: 15.061
    01: 50: 55.107 : en: 01: 50: 55.107
    02: 01: 36.873 : en: 02: 01: 36.873
    02: 08: 40.379 : en: 02: 08: 40.379
    02: 16: 42.486 : en: 02: 16: 42.486
    02: 27: 46.733 : en: 02: 27: 46.733
    - Основа open matte источника - трансляция ТВ 3 HD. За запись спасибо Wilmots. Логотип и пострекламные вставки удалены с помощью низкобитрейтного WEB-DL, под который также скорректирован цвет, т.к. на ТВ картинка была осветлена и ушла в зелёные тона.
    - OAR BluRay наложен поверх open matte источника с помощью AutoOverlay AviSynth plugin. Цвет скорректирован для соответствия подложке.
    - Локализованный чистый видеоряд. Текст вступления на русском языке. По сравнению с блюреем, хардсабы на диалоги так же на русском и выполнены в стилистике фильма, то есть нативные. Хардсабы, добавленные телеканалом для перевода надписей, удалены и заменены на обычные форсированные субтитры, которые сделаны специально для этого видеоряда.
    - Почти все сцены дополнены сверху и снизу без обрезки по бокам.
    - Хронометраж соответствует BD.
    - Сохранены оригинальные главы как на Blu-ray.
    http://www.framecompare.com/screenshotcomparison/YDK7NNNX

    Скриншоты для ознакомления



    Все одноименные релизы в Клубе
    Время раздачи: 24/7 (до появления первых 3-5 скачавших)


    Бегущий по лезвию 2049/Blade Runner 2049 (2017) Hybrid [H.264/1080p] [hand made 16:9] [Локализованная версия]
    Рейтинг →
     (голосов: 1, оценка 3/5, голосовать можно 1 раз )

    Другие торренты по теме:

  • Бегущий по лезвию / Blade Runner (1982) HDRip [Final Cut] скачать через торрент бесплатно
  • Бегущий по лезвию / Blade Runner (1982) BDRip [H.264 / 1080p] [The Final Cut]
  • Бегущий по лезвию / Blade Runner (1982) [Final Cut] AC3 5.1 [Solod]
  • Бегущий по лезвию бритвы / Blade Runner (1982) BDRip [H.265 / 720р-LQ] [Final Cut]
  • Бегущий по лезвию 2049 / Blade Runner 2049 (2017) WEBRip [H.264 / 1080p] [Трейлер#2] [EN]
  • Blade Runner: Black Out 2022 | Бегущий по лезвию: отключение света 2022 [2017, Special, 1 эп.] WEB-DL 1080p raw
  • Hans Zimmer & Benjamin Wallfisch - Blade Runner 2049 / Бегущий по лезвию 2049 (Original Motion Picture Soundtrack) (2017) [MP3|320 кб / с]<Soundtrack>
  • Hans Zimmer & Benjamin Wallfisch - Blade Runner 2049 / Бегущий по лезвию 2049 (Original Motion Picture Soundtrack) (2017) [FLAC|Lossless|WEB-DL|tracks]<Soundtrack>


    • Комментарии (0):

      Информация

      Информация

        Посетители, находящиеся в группе Гости, не могут оставлять комментарии в данной новости.

        ↓ Меню




        ↓ Опрос

        Вы добавили сайт в закладки?
        Да
        Нет


        Top 10 за месяц (Другое)