.
Авторизация | Регистрация

Торрент скачать бесплатно

  • support: webmaster@btracker.club
» » Шири / Shiri / Swiri (1999) HDTVRip [H.264 / 720p-LQ] [DVO] [AD] торрент скачать бесплатно


    Шири / Shiri / Swiri (1999) HDTVRip [H.264 / 720p-LQ] [DVO] [AD] торрент скачать бесплатно

    Дата: 14-02-2019, 05:00 | .torrent скачали: 2

    Шири / Shiri / Swiri (1999) HDTVRip [H.264 / 720p-LQ] [DVO] [AD]Производство: Корея Южная/Kang Je-Kyu Film Co. Ltd., Samsung Entertainment
    Жанр: Боевик, Триллер
    Режиссер: Кан Джэ-гю

    Актеры
    Хан Сок Кю, Чхве Мин Сик, Ким Юн Джин, Сон Кан Хо, Джонни Ким, Хван Чжон Мин, Чон Хён Сон, Ким Су Ро, Ли Сон Син, Пак Ён У

    Описание

    Шири — это крошечная пресноводная рыбка, которая водится в чистейших корейских реках. Это маленькое, непокорное существо предпочитает мелким и спокойным водоемам дикие и каменистые быстрины. Шири — так называется тайная террористическая операция, на выполнение которой отправляются секретные агенты восьмого специального отдела северокорейских вооруженных сил. Элитные сотрудники восьмого отдела не знают, что такое сомнения и страх. Эти люди — одержимые самоубийцы, которых никто и ничто не остановит...

    Возраст: 16+ (зрителям, достигшим 16 лет)
    Рейтинг MPAA: R (лицам до 17 лет обязательно присутствие взрослого)
    Релиз от: Lem (ktv) shellgen rt Manila rip
    Продолжительность: 02: 00: 50
    Качество видео: HDTVRip
    Перевод: Любительский двуголосый закадровый (Колобок)
    Субтитры: отсутствуют
    Реклама: присутствуют аудио вставки рекламы
    Видео: AVC/H.264, 1280х688, ~4793 kbps
    Аудио: AC3, 2 ch, 192 kbps
    General
    Unique ID : 256785862317006921078608605787435343565 (0xC12F287CB9C3361BE3C3F8C2B46C9ECD)
    Complete name : Swiri Shiri Шири 1999 HDTVRip720p.mkv
    Format : Matroska
    Format version : Version 4
    File size : 4.21 GiB
    Duration : 2 h 0 min
    Overall bit rate : 4 987 kb/s
    Movie name : Swiri (1999)
    Encoded date : UTC 2019-02-11 12: 58: 21
    Writing application : mkvmerge v30.1.0 (\'Forever And More\') 32-bit
    Writing library : libebml v1.3.6 + libmatroska v1.4.9
    Video
    ID : 1
    Format : AVC
    Format/Info : Advanced Video Codec
    Format profile : High@L5.1
    Format settings : CABAC/8 Ref Frames
    Format settings, CABAC : Yes
    Format settings, ReFrames : 8 frames
    Codec ID : V_MPEG4/ISO/AVC
    Duration : 2 h 0 min
    Bit rate : 4 793 kb/s
    Width : 1 280 pixels
    Height : 688 pixels
    Display aspect ratio : 1.85: 1
    Frame rate mode : Constant
    Frame rate : 23.976 (24000/1001) FPS
    Color space : YUV
    Chroma subsampling : 4: 2: 0
    Bit depth : 8 bits
    Scan type : Progressive
    Bits/(Pixel*Frame) : 0.227
    Stream size : 4.05 GiB (96%)
    Writing library : x264 core 57 svn-714
    Encoding settings : cabac=1/ref=5/deblock=1: 0: 0/analyse=0x3: 0x133/me=hex/subme=6/brdo=1/mixed_ref=1/me_range=16/chroma_me=1/trellis=1/8x8dct=1/cqm=0/deadzone=21, 11/chroma_qp_offset=0/threads=3/nr=0/decimate=1/mbaff=0/bframes=3/b_pyramid=1/b_adapt=1/b_bias=0/direct=1/wpredb=1/bime=1/keyint=250/keyint_min=25/scenecut=40(pre)/rc=2pass/bitrate=4793/ratetol=1.0/rceq=\'blurCplx^(1-qComp)\'/qcomp=0.60/qpmin=10/qpmax=51/qpstep=4/cplxblur=20.0/qblur=0.5/ip_ratio=1.40/pb_ratio=1.30
    Default : Yes
    Forced : No
    Audio
    ID : 2
    Format : AC-3
    Format/Info : Audio Coding 3
    Commercial name : Dolby Digital
    Codec ID : A_AC3
    Duration : 2 h 0 min
    Bit rate mode : Constant
    Bit rate : 192 kb/s
    Channel(s) : 2 channels
    Channel layout : L R
    Sampling rate : 48.0 kHz
    Frame rate : 31.250 FPS (1536 SPF)
    Bit depth : 16 bits
    Compression mode : Lossy
    Stream size : 166 MiB (4%)
    Title : DVO Kolobok
    Language : Russian
    Service kind : Complete Main
    Default : Yes
    Forced : No


    Шири/Shiri/Swiri (1999) HDTVRip [H.264/720p-LQ] [DVO] [AD]
    Рейтинг →
     (голосов: 1, оценка 4/5, голосовать можно 1 раз )

    Другие торренты по теме:



      Комментарии (0):

      Информация

      Информация

        Посетители, находящиеся в группе Гости, не могут оставлять комментарии в данной новости.

        ↓ Меню




        ↓ Опрос

        Вы добавили сайт в закладки?
        Да
        Нет


        Top 10 за месяц (Другое)