.
Авторизация | Регистрация
Хочешь лучшие торренты? Добавь свой email!
Добавить

Торрент скачать бесплатно

  • support: webmaster@btracker.club
» » Лишь Бог мне судья / Nur Gott kann mich richten (2017) WEB-DLRip [MVO] [AD] торрент скачать бесплатно


    Лишь Бог мне судья / Nur Gott kann mich richten (2017) WEB-DLRip [MVO] [AD] торрент скачать бесплатно

    Опубликовал: fregat | Дата: 16-01-2019, 05:00 | .torrent скачали: 6

    Лишь Бог мне судья / Nur Gott kann mich richten (2017) WEB-DLRip [MVO] [AD]Производство: Германия/Constantin Film, Paloma Film, Rat Pack Filmproduktion
    Жанр: Триллер, драма, криминал
    Режиссер: Озгюр Йылдырым

    Актеры
    Абдулла Дальоглу, Кай Иво Баулиц, Мориц Бляйбтрой, Зейхун Демиров, Майкл Хансманн, Эдин Хасановиц, Лола Краус, Александра Мария Лара, Томас Лимпинзель, Каилас Махадеван

    Описание

    После неудачной попытки ограбления пять лет назад Рики отправился в тюрьму за своего брата Рафаэля и своего приятеля Латифа. Теперь, когда он вернулся из тюрьмы, Латиф хочет выразить свою благодарность: он говорит, что у него есть надежный способ быстро разбогатеть, и Рики может использовать деньги, чтобы начать свою новую жизнь. Рики сначала колеблется, но затем соглашается. Осложнения возникают, как только начинаются некоторые приготовления.

    Продолжительность: 01: 40: 00
    Качество видео: WEB-DLRip
    Перевод: Многоголосый закадровый, профессиональный (Синема УС)
    Субтитры: Отсутствуют
    Реклама: Присутствуют вставки текстовой рекламы
    Видео: XviD, 720x304, ~1474 Kbps
    Аудио: AC-3, 2 ch, 384 Kbps

    Общее
    Полное имя : C: _Лишь Бог мне судьяNur Gott kann mich richten 2018 WEB-DLRip.avi
    Формат : AVI
    Формат/Информация : Audio Video Interleave
    Профиль формата : OpenDML
    Размер файла : 1, 31 Гбайт
    Продолжительность : 1 ч. 40 м.
    Общий поток : 1870 Кбит/сек
    Видео
    Идентификатор : 0
    Формат : MPEG-4 Visual
    Профиль формата : Advanced Simple@L5
    Параметр BVOP формата : 2
    Параметр QPel формата : Нет
    Параметр GMC формата : Без точки перехода
    Параметр матрицы формата : Выборочная
    Идентификатор кодека : XVID
    Идентификатор кодека/Подсказка : XviD
    Продолжительность : 1 ч. 40 м.
    Битрейт : 1474 Кбит/сек
    Ширина : 720 пикселей
    Высота : 304 пикселя
    Соотношение сторон : 2, 35: 1
    Частота кадров : 23, 976 (24000/1001) кадра/сек
    Цветовое пространство : YUV
    Субдискретизация насыщенности : 4: 2: 0
    Битовая глубина : 8 бит
    Тип развёртки : Прогрессивная
    Метод сжатия : С потерями
    Бит/(Пиксели*Кадры) : 0.281
    Размер потока : 1, 03 Гбайт (79%)
    Библиотека кодирования : XviD 1.2.1 (UTC 2008-12-04)
    Аудио
    Идентификатор : 1
    Формат : AC-3
    Формат/Информация : Audio Coding 3
    Расширение режима : CM (complete main)
    Параметр Endianness формата : Big
    Идентификатор кодека : 2000
    Продолжительность : 1 ч. 40 м.
    Вид битрейта : Постоянный
    Битрейт : 384 Кбит/сек
    Каналы : 2 канала
    Расположение каналов : Front: L R
    Частота : 48, 0 КГц
    Частота кадров : 31, 250 кадров/сек (1536 spf)
    Метод сжатия : С потерями
    Размер потока : 275 Мбайт (21%)
    Выравнивание : Соединение по промежуткам
    Продолжительность промежутка : 32 мс. (0, 77 видеокадр)

    Скриншоты для ознакомления



    Все одноименные релизы в Клубе Время раздачи: 24/7 (до появления первых 3-5 скачавших)


    Лишь Бог мне судья/Nur Gott kann mich richten (2017) WEB-DLRip [MVO] [AD]
    Рейтинг →
     (голосов: 1, оценка 4/5, голосовать можно 1 раз )

    Другие торренты по теме:

  • Джеймс Хедли Чейз | Дело лишь во времени (2015) [MP3] скачать через торрент бесплатно
  • Boku dake ga Inai Machi / Erased / Город, где нет лишь меня [2016, TV, 1 из 11] WEBRip 720p Raw+Rus скачать через торрент бесплатно
  • Ютта Рихтер | Я всего лишь собака (2014) [FB2]
  • Boku dake ga Inai Machi | Erased | Город, где нет лишь меня [2016, TV, 12] BDrip 1080p Hi10p raw
  • Это всего лишь конец света / Juste la fin du monde (2016) WEB-DL [H.264 / 1080p-LQ]
  • Это всего лишь конец света / Juste la fin du monde (2016) WEB-DLRip
  • Это всего лишь конец света / Juste la fin du monde (2016) WEB-DLRip [H.264] [MP4|1024x576]
  • Это всего лишь конец света / Juste la fin du monde (2016) HDRip [Line]


    • Комментарии (0):

      Информация

      Информация

        Посетители, находящиеся в группе Гости, не могут оставлять комментарии в данной новости.

        ↓ Меню




        ↓ Опрос

        Вы добавили сайт в закладки?
        Да
        Нет


        Top 10 за месяц (Другое)