.
Авторизация | Регистрация

Торрент скачать бесплатно

  • support: webmaster@btracker.club
» » Ужастики 2: Беспокойный Хэллоуин / Goosebumps 2: Haunted Halloween (2018) BDRip [H.264 / 1080p] [hand made 16:9] торрент скачать бесплатно


    Ужастики 2: Беспокойный Хэллоуин / Goosebumps 2: Haunted Halloween (2018) BDRip [H.264 / 1080p] [hand made 16:9] торрент скачать бесплатно

    Дата: 9-01-2019, 05:00 | .torrent скачали: 0

    Ужастики 2: Беспокойный Хэллоуин / Goosebumps 2: Haunted Halloween (2018) BDRip [H.264 / 1080p] [hand made 16:9]Производство: США, Великобритания, Columbia Pictures Corporation, Sony Pictures Animation
    Жанр: Ужасы, Фэнтези, Комедия, Приключения
    Режиссер: Эри Сандел

    Актеры
    Мэдисон Айсмен, Джереми Рэй Тейлор, Калил Харрис, Мик Вингерт, Кен Жонг, Венди МакЛендон-Кови, Крис Парнелл, Брайс Касс, Пейтон Уич, Шэри Хидли

    Описание

    В заброшенном доме парочка ребят находит странную книгу Беспокойный Хэллоуин Р. Л. Стайна. Друзья быстро понимают, почему книгу спрятали подальше от всех, когда небольшой городок заполняют монстры разной степени ужасности.

    Возраст: 6+ (зрителям, достигшим 6 лет)
    Рейтинг MPAA: PG-13 (детям до 13 лет просмотр нежелателен)
    Дата мировой премьеры: 11 октября 2018
    Дата российской премьеры: 1 ноября 2018, WDSSPR
    Продолжительность: 01: 29: 48
    Качество видео: BDRip
    Перевод: Дублированный (iTunes)
    Субтитры: Русские (форс., полные), английские (полные)
    Видео: AVC/H.264, 1920x1080, ~10 Mbps
    Аудио #1: AC3, 6 ch, 384 Kbps - Русский
    Аудио #2: AC3, 6 ch, 640 Kbps - Английский

    frame I: 1343 Avg QP: 16.80 size: 222953
    frame P: 31442 Avg QP: 19.36 size: 88533
    frame B: 96406 Avg QP: 20.30 size: 37881
    Unique ID : 217109444591177338298088576428802768537 (0xA355C20FE029B11BB1A4C32CA0EAFE99)
    Complete name : D: TempNNMУжастики2.FS.mkv
    Format : Matroska
    Format version : Version 4/Version 2
    File size : 6.92 GiB
    Duration : 1h 29mn
    Overall bit rate : 11.0 Mbps
    Movie name : Goosebumps 2: Haunted Halloween (2018)
    Encoded date : UTC 2019-01-07 11: 23: 00
    Writing application : mkvmerge v9.8.0 (\'Kuglblids\') 64bit
    Writing library : libebml v1.3.4 + libmatroska v1.4.5
    Video
    ID : 1
    Format : AVC
    Format/Info : Advanced Video Codec
    Format profile : High@L4.1
    Format settings, CABAC : Yes
    Format settings, ReFrames : 4 frames
    Codec ID : V_MPEG4/ISO/AVC
    Duration : 1h 29mn
    Bit rate : 10 000 Kbps
    Width : 1 920 pixels
    Height : 1 080 pixels
    Display aspect ratio : 16: 9
    Frame rate mode : Constant
    Frame rate : 23.976 fps
    Color space : YUV
    Chroma subsampling : 4: 2: 0
    Bit depth : 8 bits
    Scan type : Progressive
    Bits/(Pixel*Frame) : 0.201
    Stream size : 6.14 GiB (89%)
    Writing library : x264 core 128 r2216M 198a7ea
    Encoding settings : cabac=1/ref=4/deblock=1: -3: -3/analyse=0x3: 0x133/me=umh/subme=10/psy=1/psy_rd=1.00: 0.20/mixed_ref=1/me_range=24/chroma_me=1/trellis=2/8x8dct=1/cqm=0/deadzone=21, 11/fast_pskip=1/chroma_qp_offset=-3/threads=4/lookahead_threads=1/sliced_threads=0/nr=0/decimate=1/interlaced=0/bluray_compat=0/constrained_intra=0/bframes=6/b_pyramid=2/b_adapt=2/b_bias=0/direct=3/weightb=1/open_gop=0/weightp=2/keyint=230/keyint_min=23/scenecut=40/intra_refresh=0/rc_lookahead=40/rc=2pass/mbtree=1/bitrate=10000/ratetol=1.0/qcomp=0.60/qpmin=10/qpmax=51/qpstep=4/cplxblur=20.0/qblur=0.5/ip_ratio=1.40/aq=1: 1.00
    Language : English
    Default : Yes
    Forced : No
    Audio #1
    ID : 2
    Format : AC-3
    Format/Info : Audio Coding 3
    Mode extension : CM (complete main)
    Format settings, Endianness : Big
    Codec ID : A_AC3
    Duration : 1h 29mn
    Bit rate mode : Constant
    Bit rate : 384 Kbps
    Channel(s) : 6 channels
    Channel positions : Front: L C R, Side: L R, LFE
    Sampling rate : 48.0 KHz
    Bit depth : 16 bits
    Compression mode : Lossy
    Stream size : 247 MiB (3%)
    Title : iTunes
    Language : Russian
    Default : Yes
    Forced : No
    Audio #2
    ID : 3
    Format : AC-3
    Format/Info : Audio Coding 3
    Mode extension : CM (complete main)
    Format settings, Endianness : Big
    Codec ID : A_AC3
    Duration : 1h 29mn
    Bit rate mode : Constant
    Bit rate : 640 Kbps
    Channel(s) : 6 channels
    Channel positions : Front: L C R, Side: L R, LFE
    Sampling rate : 48.0 KHz
    Bit depth : 16 bits
    Compression mode : Lossy
    Delay relative to video : 27ms
    Stream size : 411 MiB (6%)
    Title : Original
    Language : English
    Default : No
    Forced : No
    Text #1
    ID : 4
    Format : UTF-8
    Codec ID : S_TEXT/UTF8
    Codec ID/Info : UTF-8 Plain Text
    Title : Forced
    Language : Russian
    Default : Yes
    Forced : Yes
    Text #2
    ID : 5
    Format : UTF-8
    Codec ID : S_TEXT/UTF8
    Codec ID/Info : UTF-8 Plain Text
    Title : Full
    Language : Russian
    Default : No
    Forced : No
    Text #3
    ID : 6
    Format : UTF-8
    Codec ID : S_TEXT/UTF8
    Codec ID/Info : UTF-8 Plain Text
    Title : Full
    Language : English
    Default : No
    Forced : No

    Скриншоты для ознакомления



    Все одноименные релизы в Клубе
    Время раздачи: 24/7 (до появления первых 3-5 скачавших)


    Ужастики 2: Беспокойный Хэллоуин/Goosebumps 2: Haunted Halloween (2018) BDRip [H.264/1080p] [hand made 16:9]
    Рейтинг →
     (голосов: 1, оценка 5/5, голосовать можно 1 раз )

    Другие торренты по теме:

  • Ужастики 2: Беспокойный Хэллоуин / Goosebumps 2: Haunted Halloween (2018) WEB-DLRip [UKR, ENG]
  • Ужастики 2: Беспокойный Хэллоуин / Goosebumps 2: Haunted Halloween (2018) WEB-DL [H.264 / 1080p-LQ] [UKR, ENG]
  • Ужастики 2: Беспокойный Хэллоуин / Goosebumps 2: Haunted Halloween (2018) WEB-DLRip [Line, AD]
  • Ужастики 2: Беспокойный Хэллоуин / Goosebumps 2: Haunted Halloween (2018) WEB-DLRip
  • Ужастики 2: Беспокойный Хэллоуин / Goosebumps 2: Haunted Halloween (2018) WEB-DL [H.264 / 1080p-LQ]
  • Ужастики 2: Беспокойный Хэллоуин / Goosebumps 2: Haunted Halloween (2018) WEB-DL [1080p] ATV
  • Ужастики 2: Беспокойный Хэллоуин / Goosebumps 2: Haunted Halloween (2018) BDRip [H.264 / 1080p] [PR]
  • Ужастики 2: Беспокойный Хэллоуин / Goosebumps 2: Haunted Halloween (2018) BDRip [H.264 / 720p] [PR]


    • Комментарии (0):

      Информация

      Информация

        Посетители, находящиеся в группе Гости, не могут оставлять комментарии в данной новости.

        ↓ Меню




        ↓ Опрос

        Вы добавили сайт в закладки?
        Да
        Нет


        Top 10 за месяц (Другое)