.
Авторизация | Регистрация

Торрент скачать бесплатно

  • support: webmaster@btracker.club
» » Belinda Carlisle - Runaway Live (1990) DVDRip [hand made 60 fps] [PR] торрент скачать бесплатно


    Belinda Carlisle - Runaway Live (1990) DVDRip [hand made 60 fps] [PR] торрент скачать бесплатно

    Дата: 22-12-2018, 05:01 | .torrent скачали: 2

    Belinda Carlisle - Runaway Live (1990) DVDRip [hand made 60 fps] [PR]Жанр: Pop Rock, Pop

    Описание

    В 1989 году певица представила свой новый студийный продукт — Runaway Horses, который отличался более зрелым, гармоничным, стройным саундом. Это очень понравилось англоязычным меломанам за пределами Соединённых Штатов (в Британии и Австралии альбом стал дважды платиновым), зато на родине певицы публика начала понемногу терять к ней интерес. Диск Runaway Horses едва засветился в Тор 40 рейтинга Billboard 200, а первая десятка хит-синглов так и осталась непокоренной. Даже написанная в соавторстве с Джорджем Харрисоном песня Leave a Light On не стала громким хитом, тогда как в Англии приземлилась в Тор 5. Отлично чувствовали себя в английских чартах и другие треки: Summer Rain, La Luna, Runaway Horses, Vision of You, (We Want) The Same Thing (хит #2). Мировое турне Белинды Карлайл достигло кульминации даже на Британских островах, где артистке удалось дважды собрать полный стадион Уэмбли.
    Продолжительность: 01: 20: 10
    Качество видео: DVDRip
    Видео: AVC/H.264, 696x520, ~3000 Kbps
    Аудио: AC3, 2 ch, 224Kbps
    Треклист:
    01. Runaway Horses
    02. Summer Rain
    03. (We Want) The Same Thing
    04. Whatever It Takes
    05. Mad About You
    06. Circles in the Sand
    07. Nobody Owns Me
    08. I Get Weak
    09. Valentine
    10. La Luna
    11. Vision of You
    12. Leave a Light on for Me
    13. Heaven Is a Place on Earth
    14. Our Lips Are Sealed
    15. We Got the Beat
    16. World Without You
    17. Shades of Michelangelo

    Общее
    Уникальный идентификатор : 56581742724908026489121265910263279883 (0x2A913F4C8F2B3D15D3D8FB35F6DF710B)
    Полное имя : E: BelindaRunaway LiveBelinda Carlisle_Runaway Live_1990.mkv
    Формат : Matroska
    Версия формата : Version 2
    Размер файла : 1, 81 Гбайт
    Продолжительность : 1 ч. 20 м.
    Общий поток : 3220 Кбит/сек
    Дата кодирования : UTC 2018-12-16 08: 50: 01
    Программа кодирования : mkvmerge v29.0.0 (\'Like It Or Not\') 64-bit
    Библиотека кодирования : libebml v1.3.6 + libmatroska v1.4.9
    Видео
    Идентификатор : 1
    Формат : AVC
    Формат/Информация : Advanced Video Codec
    Профиль формата : High@L3.1
    Настройки формата : CABAC/8 Ref Frames
    Параметр CABAC формата : Да
    Параметр RefFrames формата : 8 кадров
    Идентификатор кодека : V_MPEG4/ISO/AVC
    Продолжительность : 1 ч. 20 м.
    Битрейт : 3000 Кбит/сек
    Ширина : 696 пикселей
    Высота : 520 пикселей
    Соотношение сторон : 4: 3
    Режим частоты кадров : Постоянный
    Частота кадров : 60, 000 кадров/сек
    Цветовое пространство : YUV
    Субдискретизация насыщенности : 4: 2: 0
    Битовая глубина : 8 бит
    Тип развёртки : Прогрессивная
    Бит/(Пиксели*Кадры) : 0.138
    Размер потока : 1, 68 Гбайт (93%)
    Библиотека кодирования : x264 core 157 r2935 545de2f
    Настройки программы : cabac=1/ref=8/deblock=1: 0: 0/analyse=0x3: 0x133/me=umh/subme=9/psy=1/psy_rd=1.00: 0.00/mixed_ref=1/me_range=16/chroma_me=1/trellis=2/8x8dct=1/cqm=0/deadzone=21, 11/fast_pskip=1/chroma_qp_offset=-2/threads=6/lookahead_threads=1/sliced_threads=0/nr=0/decimate=1/interlaced=0/bluray_compat=0/constrained_intra=0/bframes=3/b_pyramid=2/b_adapt=2/b_bias=0/direct=3/weightb=1/open_gop=0/weightp=2/keyint=600/keyint_min=60/scenecut=40/intra_refresh=0/rc_lookahead=60/rc=2pass/mbtree=1/bitrate=3000/ratetol=1.0/qcomp=0.60/qpmin=0/qpmax=69/qpstep=4/cplxblur=20.0/qblur=0.5/ip_ratio=1.40/aq=1: 1.00
    Default : Да
    Forced : Нет
    Аудио
    Идентификатор : 2
    Формат : AC-3
    Формат/Информация : Audio Coding 3
    Коммерческое название : Dolby Digital
    Идентификатор кодека : A_AC3
    Продолжительность : 1 ч. 20 м.
    Вид битрейта : Постоянный
    Битрейт : 224 Кбит/сек
    Каналы : 2 канала
    Channel layout : L R
    Частота : 48, 0 КГц
    Частота кадров : 31, 250 кадров/сек (1536 SPF)
    Битовая глубина : 16 бит
    Метод сжатия : С потерями
    Размер потока : 129 Мбайт (7%)
    ServiceKind/String : Complete Main
    Default : Да
    Forced : Нет
    Меню
    00: 00: 00.000 : en: Introduction
    00: 01: 35.683 : en: Runaway Horses
    00: 06: 39.880 : en: Summer Rain
    00: 11: 50.840 : en: The Same Thing (We Want)
    00: 15: 55.240 : en: Whatever It Takes
    00: 20: 32.400 : en: Mad About You
    00: 24: 37.320 : en: Circles in the Sand
    00: 29: 33.720 : en: Nobody Owns Me
    00: 33: 16.280 : en: I Get Weak
    00: 38: 02.280 : en: Valentine
    00: 43: 44.960 : en: La Luna
    00: 48: 30.440 : en: Vision of You
    00: 53: 11.240 : en: Leave a Light on for Me
    00: 57: 35.920 : en: Heaven Is a Place on Earth
    01: 03: 03.000 : en: Our Lips Are Sealed
    01: 05: 39.520 : en: We Got the Beat
    01: 09: 36.120 : en: World Without You
    01: 14: 29.920 : en: Shades of Michelangelo

    Скриншоты для ознакомления




    Все релизы Belinda Carlisle в Клубе
    Время раздачи: 24/7 (круглосуточно) (до появления первых 3-5 скачавших)


    Belinda Carlisle - Runaway Live (1990) DVDRip [hand made 60 fps] [PR]
    Рейтинг →
     (голосов: 1, оценка 4/5, голосовать можно 1 раз )

    Другие торренты по теме:

  • Belinda Carlisle - Belinda Live! Good Heavens Tour! (1988) DVDRip [hand made 60 fps]
  • Belinda Carlisle - 7 альбомов (2013 - 2014) Remastered & Expanded Deluxe Editions [FLAC|Lossless]<Pop, Rock>
  • Belinda Carlisle - California (1997) [FLAC|Lossless]<Pop Rock>
  • Belinda Carlisle - Voila (2007) Remastered / 2014, Edsel Records / [FLAC|tracks + .cue]<Pop Chanson, Ballad> скачать через торрент бесплатно
  • Belinda Carlisle - The Very Best Of (2015) 2CD [FLAC|image + .cue]<Pop, Rock> скачать через торрент бесплатно
  • Belinda Carlisle - The Anthology (2014) Compilation, 3CD [FLAC|Lossless|tracks + .cue] <Pop-Rock>
  • Belinda Carlisle - Wilder Shores (2017) [FLAC|Lossless|WEB-DL|tracks] <Pop, Pop Rock>


    • Комментарии (0):

      Информация

      Информация

        Посетители, находящиеся в группе Гости, не могут оставлять комментарии в данной новости.

        ↓ Меню




        ↓ Опрос

        Вы добавили сайт в закладки?
        Да
        Нет


        Top 10 за месяц (Другое)