.
Авторизация | Регистрация
Хочешь лучшие торренты? Добавь свой email!
Добавить

Торрент скачать бесплатно

  • support: webmaster@btracker.club
» » 50 первых поцелуев / 50 Kaime no Fasuto Kisu (2018) HDRip [MVO] [AD] торрент скачать бесплатно


    50 первых поцелуев / 50 Kaime no Fasuto Kisu (2018) HDRip [MVO] [AD] торрент скачать бесплатно

    Опубликовал: fregat | Дата: 22-12-2018, 05:01 | .torrent скачали: 0

    50 первых поцелуев / 50 Kaime no Fasuto Kisu (2018) HDRip [MVO] [AD]Производство: Япония/Plus D
    Жанр: Комедия, мелодрама
    Режиссер: Юити Фукуда

    Актеры
    Такаюки Ямада, Масами Нагасава, Фэйт Фэй, Дэвид Джеймс Сиккинк, Коуди Истербрук, Эдвин Бонд, Цуёси Муро, Дзиро Сато, Хирона Ямадзаки, Кацуя

    Описание

    Дайсукэ Югэ работает гидом в Оаху на Гаваях и изучает астрономию. Однажды в кафе он встречает Руи Фудзисиму и моментально влюбляется в неё. Парень ещё не знает, что у Руи непростая судьба — после несчастного случая девушка страдает провалами в памяти.

    Дата мировой премьеры: 30 декабря 2017 (Tokyo)
    Продолжительность: 01: 53: 25
    Качество видео: HDRip
    Перевод: Многоголосый закадровый, профессиональный (Синема УС)
    Субтитры: Отсутствуют
    Реклама: Присутствуют вставки текстовой рекламы
    Видео: XviD, 720x384, ~1589 Kbps
    Аудио : AC-3, 2 ch, 192 Kbps

    Общее
    Полное имя : C: _50 первых поцелуев50 First Kisses 2018 HDRip.avi
    Формат : AVI
    Формат/Информация : Audio Video Interleave
    Профиль формата : OpenDML
    Размер файла : 1, 42 Гбайт
    Продолжительность : 1 ч. 53 м.
    Общий поток : 1793 Кбит/сек
    Видео
    Идентификатор : 0
    Формат : MPEG-4 Visual
    Профиль формата : Advanced Simple@L5
    Параметр BVOP формата : 2
    Параметр QPel формата : Нет
    Параметр GMC формата : Без точки перехода
    Параметр матрицы формата : Выборочная
    Идентификатор кодека : XVID
    Идентификатор кодека/Подсказка : XviD
    Продолжительность : 1 ч. 53 м.
    Битрейт : 1589 Кбит/сек
    Ширина : 720 пикселей
    Высота : 384 пикселя
    Соотношение сторон : 1, 85: 1
    Частота кадров : 23, 976 (24000/1001) кадра/сек
    Цветовое пространство : YUV
    Субдискретизация насыщенности : 4: 2: 0
    Битовая глубина : 8 бит
    Тип развёртки : Прогрессивная
    Метод сжатия : С потерями
    Бит/(Пиксели*Кадры) : 0.240
    Размер потока : 1, 26 Гбайт (89%)
    Библиотека кодирования : XviD 1.2.1 (UTC 2008-12-04)
    Аудио
    Идентификатор : 1
    Формат : AC-3
    Формат/Информация : Audio Coding 3
    Расширение режима : CM (complete main)
    Параметр Endianness формата : Big
    Идентификатор кодека : 2000
    Продолжительность : 1 ч. 53 м.
    Вид битрейта : Постоянный
    Битрейт : 192 Кбит/сек
    Каналы : 2 канала
    Расположение каналов : Front: L R
    Частота : 48, 0 КГц
    Частота кадров : 31, 250 кадров/сек (1536 spf)
    Метод сжатия : С потерями
    Размер потока : 156 Мбайт (11%)
    Выравнивание : Соединение по промежуткам
    Продолжительность промежутка : 32 мс. (0, 77 видеокадр)

    Скриншоты для ознакомления



    Все одноименные релизы в Клубе Время раздачи: 24/7 (до появления первых 3-5 скачавших)


    50 первых поцелуев/50 Kaime no Fasuto Kisu (2018) HDRip [MVO] [AD]
    Рейтинг →
     (голосов: 1, оценка 3/5, голосовать можно 1 раз )

    Другие торренты по теме:

  • Клуб первых жен / The First Wives Club (1996) DVDRip [H.264] скачать через торрент бесплатно
  • П. П. Гайденко | Эволюция понятия науки: Становление и развитие первых научных программ (1980) [DJVU] скачать через торрент бесплатно
  • Оливия Голдсмит | Клуб первых жен (2015) [MP3] скачать через торрент бесплатно
  • Артем Сенаторов | Бизнес в Instagram. От регистрации до первых денег (2015) [EPUB] скачать через торрент бесплатно
  • ecoschool.info | Поселение. От первых шагов до изобилия (2016) HDRip [H.264]
  • Футбол. Лига Европы 2015-2016. 1 / 16 финала. Обзор первых матчей. (18.02.2016) HDTVRip [H.264 / 720p-LQ]
  • Алексей Богомолов | Легенды первых лиц СССР (2016) [FB2]
  • Футбол. Лига Европы 2015-2016. 1 / 8 финала. Обзор первых матчей. (10.03.2016) HDTVRip [H.264 / 720p-LQ]


    • Комментарии (0):

      Информация

      Информация

        Посетители, находящиеся в группе Гости, не могут оставлять комментарии в данной новости.

        ↓ Меню




        ↓ Опрос

        Вы добавили сайт в закладки?
        Да
        Нет


        Top 10 за месяц (Другое)