.
Авторизация | Регистрация
Хочешь лучшие торренты? Добавь свой email!
Добавить

Торрент скачать бесплатно

  • support: webmaster@btracker.club
» » Гарри Поттер и узник Азкабана / Harry Potter and the Prisoner of Azkaban (2004) BDRip [H.264 / 720p-LQ] [hand made 16:9] торрент скачать бесплатно


    Гарри Поттер и узник Азкабана / Harry Potter and the Prisoner of Azkaban (2004) BDRip [H.264 / 720p-LQ] [hand made 16:9] торрент скачать бесплатно

    Опубликовал: fregat | Дата: 17-12-2018, 05:00 | .torrent скачали: 0

    Гарри Поттер и узник Азкабана / Harry Potter and the Prisoner of Azkaban (2004) BDRip [H.264 / 720p-LQ] [hand made 16:9]Производство: Великобритания, США/Warner Bros. Pictures
    Жанр: Фэнтези, Детектив, Приключения, Семейный
    Режиссер: Альфонсо Куарон

    Актеры
    Дэниэл Рэдклифф, Ричард Гриффитс, Пэм Феррис, Фиона Шоу, Гарри Меллинг, Адриан Роулинз, Джеральдин Соммервиль, Ли Инглби, Ленни Генри, Джимми Гарднер, Гэри Олдман, Роберт Харди и др.

    Описание

    Азкабан – ужасная тюрьма для волшебников, никто и никогда еще не смог из нее бежать. Но у Сириуса Блека это получилось, и теперь на его поиски отправляются дементоры – стражи Азкабана, ужасные существа один лишь вид которых внушает непреодолимый страх. Сириус Блек направляется в Хогвардс, дементоры следуют за ним. Как выясняется, это именно Сириус предал родителей Гарри Поттера, Гарри хочет отомстить Блеку. Но все оказывается намного сложнее, чем видится на первый взгляд. Гарри приходится не убивать Блека, а спасать его.

    Возраст: 16+ (зрителям, достигшим 16 лет)
    Рейтинг MPAA: PG (рекомендуется присутствие родителей)
    Продолжительность: 02: 21: 47
    Качество видео: BDRip
    Перевод: Дублированный
    Субтитры: нет
    Видео: AVC/H.264, 1280x720, ~4028 kbps
    Аудио: AC3, 6 ch, 640 Kbps - Русский

    General
    Unique ID : 228694236290519425817967565700598767941 (0xAC0CE86424BAB5CF8D2A92C7DDCEA145)
    Complete name : D: VHSник3 - Гарри Поттер и Узник Азкабана (Open Matte).mkv
    Format : Matroska
    Format version : Version 4/Version 2
    File size : 4.62 GiB
    Duration : 2 h 21 min
    Overall bit rate : 4 670 kb/s
    Movie name : Гарри Поттер и узник Азкабана/Harry Potter and the Prisoner of Azkaban (2004) (Open Matte) - #LORDKILL#
    Encoded date : UTC 2018-09-04 02: 49: 42
    Writing application : mkvmerge v9.5.0 (\'Quiet Fire\') 64bit
    Writing library : libebml v1.3.4 + libmatroska v1.4.5
    Video
    ID : 1
    Format : AVC
    Format/Info : Advanced Video Codec
    Format profile : High@L4.1
    Format settings, CABAC : Yes
    Format settings, ReFrames : 9 frames
    Codec ID : V_MPEG4/ISO/AVC
    Duration : 2 h 21 min
    Bit rate : 4 028 kb/s
    Width : 1 280 pixels
    Height : 720 pixels
    Display aspect ratio : 16: 9
    Frame rate mode : Constant
    Frame rate : 23.976 (24000/1001) FPS
    Color space : YUV
    Chroma subsampling : 4: 2: 0
    Bit depth : 8 bits
    Scan type : Progressive
    Bits/(Pixel*Frame) : 0.182
    Stream size : 3.99 GiB (86%)
    Writing library : x264 core 146 r2538 121396c
    Encoding settings : cabac=1/ref=9/deblock=1: -1: -1/analyse=0x3: 0x113/me=umh/subme=11/psy=1/psy_rd=1.00: 0.15/mixed_ref=1/me_range=32/chroma_me=1/trellis=2/8x8dct=1/cqm=0/deadzone=21, 11/fast_pskip=0/chroma_qp_offset=-3/threads=12/lookahead_threads=2/sliced_threads=0/nr=0/decimate=1/interlaced=0/bluray_compat=0/constrained_intra=0/bframes=8/b_pyramid=2/b_adapt=2/b_bias=0/direct=1/weightb=1/open_gop=0/weightp=2/keyint=240/keyint_min=23/scenecut=40/intra_refresh=0/rc=crf/mbtree=0/crf=20.0/qcomp=0.60/qpmin=0/qpmax=69/qpstep=4/ip_ratio=1.40/pb_ratio=1.30/aq=1: 1.00
    Language : English
    Default : Yes
    Forced : No
    Audio
    ID : 2
    Format : AC-3
    Format/Info : Audio Coding 3
    Format settings, Endianness : Big
    Codec ID : A_AC3
    Duration : 2 h 21 min
    Bit rate mode : Constant
    Bit rate : 640 kb/s
    Channel(s) : 6 channels
    Channel positions : Front: L C R, Side: L R, LFE
    Sampling rate : 48.0 kHz
    Frame rate : 31.250 FPS (1536 spf)
    Bit depth : 16 bits
    Compression mode : Lossy
    Stream size : 649 MiB (14%)
    Title : Дубляж
    Language : Russian
    Service kind : Complete Main
    Default : Yes
    Forced : No
    Menu
    00: 00: 00.000 : en: (01)00: 00: 00: 000
    00: 05: 00.000 : en: (02)00: 05: 00: 000
    00: 10: 00.000 : en: (03)00: 10: 00: 000
    00: 15: 00.000 : en: (04)00: 15: 00: 000
    00: 20: 00.000 : en: (05)00: 20: 00: 000
    00: 25: 00.000 : en: (06)00: 25: 00: 000
    00: 30: 00.000 : en: (07)00: 30: 00: 000
    00: 35: 00.000 : en: (08)00: 35: 00: 000
    00: 40: 00.000 : en: (09)00: 40: 00: 000
    00: 45: 00.000 : en: (10)00: 45: 00: 000
    00: 50: 00.000 : en: (11)00: 50: 00: 000
    00: 55: 00.000 : en: (12)00: 55: 00: 000
    01: 00: 00.000 : en: (13)01: 00: 00: 000
    01: 05: 00.000 : en: (14)01: 05: 00: 000
    01: 10: 00.000 : en: (15)01: 10: 00: 000
    01: 15: 00.000 : en: (16)01: 15: 00: 000
    01: 20: 00.000 : en: (17)01: 20: 00: 000
    01: 25: 00.000 : en: (18)01: 25: 00: 000
    01: 30: 00.000 : en: (19)01: 30: 00: 000
    01: 35: 00.000 : en: (20)01: 35: 00: 000
    01: 40: 00.000 : en: (21)01: 40: 00: 000
    01: 45: 00.000 : en: (22)01: 45: 00: 000
    01: 50: 00.000 : en: (23)01: 50: 00: 000
    01: 55: 00.000 : en: (24)01: 55: 00: 000
    02: 00: 00.000 : en: (25)02: 00: 00: 000
    02: 05: 00.000 : en: (26)02: 05: 00: 000
    02: 10: 00.000 : en: (27)02: 10: 00: 000
    02: 15: 00.000 : en: (28)02: 15: 00: 000
    02: 20: 00.000 : en: (29)02: 20: 00: 000

    Скриншоты для ознакомления



    Все одноименные релизы в Клубе
    Время раздачи: 24/7 (до появления первых 3-5 скачавших)


    Гарри Поттер и узник Азкабана/Harry Potter and the Prisoner of Azkaban (2004) BDRip [H.264/720p-LQ] [hand made 16:9]
    Рейтинг →
     (голосов: 1, оценка 3/5, голосовать можно 1 раз )

    Другие торренты по теме:

  • Гарри Поттер и Партия Ленина / Гарри Поттер и Орден Феникса / Harry Potter and the Order of the Phoenix (2009) DVDRip
  • Гарри Поттер и Кубок огня / Harry Potter and the Goblet of Fire (2005) HDRip [H.264] [Ultimate Cut]
  • Гарри Поттер и Орден Феникса / Harry Potter and the Order of the Phoenix (2007) HDRip [H.264] [Ultimate Cut]
  • Джоан Роулинг | Гарри Поттер и Кубок огня [2008] [M4B | AAC] скачать через торрент бесплатно
  • Джоан Роулинг | Гарри Поттер и Дары Смерти [2011] [M4B | AAC] скачать через торрент бесплатно
  • Джоан Роулинг | Гарри Поттер и Принц-полукровка [2011] [M4B | AAC] скачать через торрент бесплатно
  • Джоан Роулинг | Гарри Поттер и Орден Феникса [2008] [M4B | AAC] скачать через торрент бесплатно
  • Джоан Роулинг | Гарри Поттер и узник Азкабана [2006] [M4B | AAC] скачать через торрент бесплатно


    • Комментарии (0):

      Информация

      Информация

        Посетители, находящиеся в группе Гости, не могут оставлять комментарии в данной новости.

        ↓ Меню




        ↓ Опрос

        Вы добавили сайт в закладки?
        Да
        Нет


        Top 10 за месяц (Другое)