.
Авторизация | Регистрация
Хочешь лучшие торренты? Добавь свой email!
Добавить

Торрент скачать бесплатно

  • support: webmaster@btracker.club
» » Крайности / In Extremis (2017) WEB-DLRip [MVO] [AD] торрент скачать бесплатно


    Крайности / In Extremis (2017) WEB-DLRip [MVO] [AD] торрент скачать бесплатно

    Опубликовал: fregat | Дата: 15-12-2018, 05:00 | .torrent скачали: 2

    Крайности / In Extremis (2017) WEB-DLRip [MVO] [AD]Производство: Великобритания/Goldfinch Studios, Media Pro Five Limited, Media Pro Six
    Жанр: Ужасы, Триллер
    Режиссер: Стив Стоун

    Актеры
    Дэвид О\'Хара, Изабелль Аллен, Нил Пирсон, Тойа Уиллкокс, Билли Феллоуз, Лиза Гормли, Тина Харрис, Ник Корнуолл, Джо Симпсон, Стюарт Сессионс

    Описание

    Алекс - имеет в жизни человек все - хорошо оплачиваемую работе, впечатляющий дом, прекрасную жену и ребенка. Но однажды, когда он по необъяснимым причинам решает уйти с работы рано утром в пятницу, ничто больше не будет прежним. Через несколько часов после его возвращения разрушительный шторм грозит уничтожить все вокруг. Изолированные без питания и телефона, эта любящая семья погружается в кошмар террора, насилия и видений, которые угрожают самому их существованию. В неразберихе прошлого и настоящего Алексу и его семье придется столкнуться с реальной природой событий. Реально ли все происходящее вокруг, или это только игра воображения...

    Продолжительность: 01: 28: 20
    Качество видео: WEB-DLRip
    Перевод: Многоголосый закадровый (Синема УС)
    Субтитры: отсутствуют
    Реклама: Присутствуют вставки голосовой и текстовой рекламы
    Видео: Xvid, 720x304, ~1694 Kbps
    Аудио: AC3, 2 ch, 384 Kbps

    Общее
    Полное имя : D: CDКрайности (Ужасы-Триллер) (2017) WEB-DLRip-MVOКрайности (2017) WEB-DLRip-MVO.avi
    Формат : AVI
    Формат/Информация : Audio Video Interleave
    Размер файла : 1, 29 Гбайт
    Продолжительность : 1 ч. 28 м.
    Общий поток : 2087 Кбит/сек
    Программа кодирования : VirtualDubMod 1.5.10.2 (build 2540/release)
    Библиотека кодирования : VirtualDub build 35576/release
    Видео
    Идентификатор : 0
    Формат : MPEG-4 Visual
    Профиль формата : Advanced Simple@L5
    Настройки формата : BVOP2/Custom Matrix
    Параметр BVOP формата : 2
    Параметр QPel формата : Нет
    Параметр GMC формата : Без точки перехода
    Параметр матрицы формата : Выборочная
    Идентификатор кодека : XVID
    Идентификатор кодека/Подсказка : XviD
    Продолжительность : 1 ч. 28 м.
    Битрейт : 1694 Кбит/сек
    Ширина : 720 пикселей
    Высота : 304 пикселя
    Соотношение сторон : 2, 35: 1
    Частота кадров : 23, 976 (24000/1001) кадра/сек
    Цветовое пространство : YUV
    Субдискретизация насыщенности : 4: 2: 0
    Битовая глубина : 8 бит
    Тип развёртки : Прогрессивная
    Метод сжатия : С потерями
    Бит/(Пиксели*Кадры) : 0.323
    Размер потока : 1, 05 Гбайт (81%)
    Библиотека кодирования : XviD 1.2.1 (UTC 2008-12-04)
    Аудио
    Идентификатор : 1
    Формат : AC-3
    Формат/Информация : Audio Coding 3
    Коммерческое название : Dolby Digital
    Идентификатор кодека : 2000
    Продолжительность : 1 ч. 28 м.
    Вид битрейта : Постоянный
    Битрейт : 384 Кбит/сек
    Каналы : 2 канала
    Channel layout : L R
    Частота : 48, 0 КГц
    Частота кадров : 31, 250 кадров/сек (1536 SPF)
    Битовая глубина : 16 бит
    Метод сжатия : С потерями
    Размер потока : 243 Мбайт (18%)
    Выравнивание : Разделение по промежуткам
    Продолжительность промежутка : 42 мс. (1, 00 видеокадр)
    Время предзагрузки промежутка : 500 мс.
    ServiceKind/String : Complete Main

    Скриншоты для ознакомления



    Все одноименные релизы в Клубе
    Время раздачи: 24/7 (круглосуточно) (до появления первых 3-5 скачавших)


    Крайности/In Extremis (2017) WEB-DLRip [MVO] [AD]
    Рейтинг →
     (голосов: 1, оценка 4/5, голосовать можно 1 раз )

    Другие торренты по теме:

  • Крайности / In Extremis (2017) WEBRip [H.264 / 720p] [MVO]


    • Комментарии (0):

      Информация

      Информация

        Посетители, находящиеся в группе Гости, не могут оставлять комментарии в данной новости.

        ↓ Меню




        ↓ Опрос

        Вы добавили сайт в закладки?
        Да
        Нет


        Top 10 за месяц (Другое)