.
Авторизация | Регистрация
Хочешь лучшие торренты? Добавь свой email!
Добавить

Торрент скачать бесплатно

  • support: webmaster@btracker.club
» » Рисованный человечек (полная версия) (2011) DVDRip торрент скачать бесплатно


    Рисованный человечек (полная версия) (2011) DVDRip торрент скачать бесплатно

    Опубликовал: fregat | Дата: 6-12-2018, 05:01 | .torrent скачали: 0

    Рисованный человечек (полная версия) (2011) DVDRipГод выпуска: 2011
    Жанр: Компьютерная анимация, Рисованная анимация

    Описание

    Предлагаю вам посмотреть мой первый мультфильм созданный в программе Toon Boom Animation , смотрите, оценивайте.
    Режиссер: Алвтаев Денис
    Персонажи: Рисованный человечек
    Продолжительность: 00: 02: 00
    Видеокодек: MPEG-4
    Битрейт видео: ~1227 kb/s
    Размер кадра: 720x540
    Качество видео: DVDRip
    Аудиокодек: AAC
    Битрейт аудио: 128 kb/s
    Формат : MPEG-4
    Идентификатор кодека : M4V
    Размер файла : 19, 4 Мбайт
    Продолжительность : 1 м. 59 с.
    Режим общего битрейта : Переменный
    Общий поток : 1359 Кбит/сек
    Программа кодирования : Lavf52.39.0
    Видео
    Идентификатор : 1
    Формат : MPEG-4 Visual
    Профиль формата : Simple@L1
    Параметр BVOP формата : Нет
    Параметр QPel формата : Нет
    Параметр GMC формата : Без точки перехода
    Параметр матрицы формата : Default (H.263)
    Идентификатор кодека : 20
    Продолжительность : 1 м. 59 с.
    Битрейт : 1227 Кбит/сек
    Ширина : 720 пикселей
    Высота : 540 пикселей
    Соотношение сторон : 4: 3
    Режим частоты кадров : Постоянный
    Частота кадров : 30, 000 кадров/сек
    Цветовое пространство : YUV
    Субдискретизация насыщенности : 4: 2: 0
    Битовая глубина : 8 бит
    Тип развёртки : Прогрессивная
    Метод сжатия : С потерями
    Бит/(Пиксели*Кадры) : 0.105
    Размер потока : 17, 5 Мбайт (90%)
    Библиотека кодирования : Lavc52.36.0
    Аудио
    Идентификатор : 2
    Формат : AAC
    Формат/Информация : Advanced Audio Codec
    Профиль формата : LC
    Идентификатор кодека : 40
    Продолжительность : 1 м. 59 с.
    Вид битрейта : Переменный
    Битрейт : 128 Кбит/сек
    Каналы : 2 канала
    Расположение каналов : Front: L R
    Частота : 44, 1 КГц
    Метод сжатия : С потерями
    Размер потока : 1, 83 Мбайт (9%)
    Время раздачи: По возможности


    Рисованный человечек (полная версия) (2011) DVDRip
    Рейтинг →
     (голосов: 1, оценка 5/5, голосовать можно 1 раз )

    Другие торренты по теме:



      Комментарии (0):

      Информация

      Информация

        Посетители, находящиеся в группе Гости, не могут оставлять комментарии в данной новости.

        ↓ Меню




        ↓ Опрос

        Вы добавили сайт в закладки?
        Да
        Нет


        Top 10 за месяц (Другое)