.
Авторизация | Регистрация
Хочешь лучшие торренты? Добавь свой email!
Добавить

Торрент скачать бесплатно

  • support: webmaster@btracker.club
» » Большое путешествие слона / Phoenix Wilder and the Great Elephant Adventure (2017) WEB-DLRip [MVO] [AD] торрент скачать бесплатно


    Большое путешествие слона / Phoenix Wilder and the Great Elephant Adventure (2017) WEB-DLRip [MVO] [AD] торрент скачать бесплатно

    Опубликовал: fregat | Дата: 29-11-2018, 05:00 | .torrent скачали: 6

    Большое путешествие слона / Phoenix Wilder and the Great Elephant Adventure (2017) WEB-DLRip [MVO] [AD]Производство: Канада, ЮАР
    Жанр: Приключения
    Режиссер: Ричард Боддингтон

    Актеры
    Элизабет Хёрли, Сэм Эш Арнольд, Тертиус Мейнтьес, Хломла Дандала, Луис Маннаар, Ричард Лукунку, Юли Мазитенг, Хекима Намарифа, Джозеф Мупфудзе, Остин Шанду

    Описание

    Подросток Феникс отправляется в Африканскую саванну, чтобы сделать уникальные снимки дикой природы. Но, погрузившись в свое дело, он потерялся. В поисках людей он наткнулся на лагерь браконьеров, которые поймали в свои сети слона. Не долго думая Феникс освобождает животное и вместе с ним отправляется на борьбу с преступниками...

    Рейтинг MPAA: PG (рекомендуется присутствие родителей)
    Продолжительность: 01: 29: 49
    Качество видео: WEB-DLRip
    Перевод: Многоголосый закадровый, любительский (AlphaProject)
    Субтитры: Отсутствуют
    Реклама: Присутствуют вставки текстовой рекламы
    Видео: XviD, 720x400, ~1719 Kbps
    Аудио : AC-3, 2 ch, 384 Kbps

    Общее
    Полное имя : C: _Большое путешествие слонаAn Elephants Journey 2018 WEB-DLRip.avi
    Формат : AVI
    Формат/Информация : Audio Video Interleave
    Профиль формата : OpenDML
    Размер файла : 1, 33 Гбайт
    Продолжительность : 1 ч. 29 м.
    Общий поток : 2115 Кбит/сек
    Видео
    Идентификатор : 0
    Формат : MPEG-4 Visual
    Профиль формата : Advanced Simple@L5
    Параметр BVOP формата : 2
    Параметр QPel формата : Нет
    Параметр GMC формата : Без точки перехода
    Параметр матрицы формата : Выборочная
    Идентификатор кодека : XVID
    Идентификатор кодека/Подсказка : XviD
    Продолжительность : 1 ч. 29 м.
    Битрейт : 1719 Кбит/сек
    Ширина : 720 пикселей
    Высота : 400 пикселей
    Соотношение сторон : 16: 9
    Частота кадров : 23, 976 (24000/1001) кадра/сек
    Цветовое пространство : YUV
    Субдискретизация насыщенности : 4: 2: 0
    Битовая глубина : 8 бит
    Тип развёртки : Прогрессивная
    Метод сжатия : С потерями
    Бит/(Пиксели*Кадры) : 0.249
    Размер потока : 1, 08 Гбайт (81%)
    Библиотека кодирования : XviD 1.2.1 (UTC 2008-12-04)
    Аудио
    Идентификатор : 1
    Формат : AC-3
    Формат/Информация : Audio Coding 3
    Расширение режима : CM (complete main)
    Параметр Endianness формата : Big
    Идентификатор кодека : 2000
    Продолжительность : 1 ч. 29 м.
    Вид битрейта : Постоянный
    Битрейт : 384 Кбит/сек
    Каналы : 2 канала
    Расположение каналов : Front: L R
    Частота : 48, 0 КГц
    Частота кадров : 31, 250 кадров/сек (1536 spf)
    Метод сжатия : С потерями
    Размер потока : 247 Мбайт (18%)
    Выравнивание : Соединение по промежуткам
    Продолжительность промежутка : 32 мс. (0, 77 видеокадр)

    Скриншоты для ознакомления



    Все одноименные релизы в Клубе Время раздачи: 24/7 (до появления первых 3-5 скачавших)


    Большое путешествие слона/Phoenix Wilder and the Great Elephant Adventure (2017) WEB-DLRip [MVO] [AD]
    Рейтинг →
     (голосов: 1, оценка 3/5, голосовать можно 1 раз )

    Другие торренты по теме:

  • Большое путешествие с Вадимом Такменёвым (2015.07.24) SATRip скачать через торрент бесплатно
  • Большое путешествие / National Lampoons Senior Trip (1995) DVDRip скачать через торрент бесплатно
  • Большое путешествие / National Lampoons Senior Trip (1995) HDTVRip [H.264 / 720p-LQ] скачать через торрент бесплатно
  • Гранд тур / Большое путешествие / The Grand Tour (2016) HDTVRip [H.264 / 1080p] (сезон 1, серия 12) BMIRussian
  • Spacekraft - Большое космическое путешествие (2016) [FLAC|Lossless|WEB-DL|image + .cue] <Tech House, Techno, Neotrance>
  • Нил Деграсс Тайсон и др. | Большое космическое путешествие (2018) [FB2]
  • Большое космическое путешествие (1974) DVD5
  • Большое космическое путешествие (1974) DVDRip


    • Комментарии (0):

      Информация

      Информация

        Посетители, находящиеся в группе Гости, не могут оставлять комментарии в данной новости.

        ↓ Меню




        ↓ Опрос

        Вы добавили сайт в закладки?
        Да
        Нет


        Top 10 за месяц (Другое)