.
Авторизация | Регистрация
Хочешь лучшие торренты? Добавь свой email!
Добавить

Торрент скачать бесплатно

  • support: webmaster@btracker.club
» » Королева Голливудского бульвара / The Queen of Hollywood Blvd (2017) WEB-DLRip [MVO] [AD] торрент скачать бесплатно


    Королева Голливудского бульвара / The Queen of Hollywood Blvd (2017) WEB-DLRip [MVO] [AD] торрент скачать бесплатно

    Опубликовал: fregat | Дата: 21-11-2018, 05:00 | .torrent скачали: 2

    Королева Голливудского бульвара / The Queen of Hollywood Blvd (2017) WEB-DLRip [MVO] [AD]Производство: США/Concrete Images, Nero-Films
    Жанр: Драма, криминал
    Режиссер: Орсон Обловитц

    Актеры
    Розмари Хохшилд, Ана Мулвой-Тен, Роджер Гуэнвёр Смит, Майкл Паркс, Элла Томас, Джон Линдстрём, Джон Скларофф, Орсон Обловитц, Криста Лэнг, Питер Лукас

    Описание

    Горделивая шестидесятилетняя владелица стрип клуба в Лос Анджелесе попадает в неприятности из-за давнишнего долга перед мафией и оказывается в круговороте насилия и мести на задворках города ангелов.

    Продолжительность: 01: 32: 26
    Качество видео: WEB-DLRip
    Перевод: Многоголосый закадровый, профессиональный (Синема УС)
    Субтитры: Отсутствуют
    Реклама: Присутствуют вставки текстовой рекламы
    Видео: XviD, 720x352, ~1634 Kbps
    Аудио: AC-3, 2 ch, 384 Kbps

    Общее
    Полное имя : E: NNMКоролева Голливудского бульвараThe Queen of Hollywood Blvd 2018 WEB-DLRip.avi
    Формат : AVI
    Формат/Информация : Audio Video Interleave
    Профиль формата : OpenDML
    Размер файла : 1, 31 Гбайт
    Продолжительность : 1 ч. 32 м.
    Общий поток : 2031 Кбит/сек
    Видео
    Идентификатор : 0
    Формат : MPEG-4 Visual
    Профиль формата : Advanced Simple@L5
    Настройки формата : BVOP2/Custom Matrix
    Параметр BVOP формата : 2
    Параметр QPel формата : Нет
    Параметр GMC формата : Без точки перехода
    Параметр матрицы формата : Выборочная
    Идентификатор кодека : XVID
    Идентификатор кодека/Подсказка : XviD
    Продолжительность : 1 ч. 32 м.
    Битрейт : 1634 Кбит/сек
    Ширина : 720 пикселей
    Высота : 352 пикселя
    Соотношение сторон : 2, 045
    Частота кадров : 23, 976 (24000/1001) кадра/сек
    Цветовое пространство : YUV
    Субдискретизация насыщенности : 4: 2: 0
    Битовая глубина : 8 бит
    Тип развёртки : Прогрессивная
    Метод сжатия : С потерями
    Бит/(Пиксели*Кадры) : 0.269
    Размер потока : 1, 06 Гбайт (80%)
    Библиотека кодирования : XviD 1.2.1 (UTC 2008-12-04)
    Аудио
    Идентификатор : 1
    Формат : AC-3
    Формат/Информация : Audio Coding 3
    Идентификатор кодека : 2000
    Продолжительность : 1 ч. 32 м.
    Вид битрейта : Постоянный
    Битрейт : 384 Кбит/сек
    Каналы : 2 канала
    Расположение каналов : Front: L R
    Частота : 48, 0 КГц
    Частота кадров : 31, 250 кадров/сек (1536 SPF)
    Битовая глубина : 16 бит
    Метод сжатия : С потерями
    Размер потока : 254 Мбайт (19%)
    Выравнивание : Соединение по промежуткам
    Продолжительность промежутка : 32 мс. (0, 77 видеокадр)
    ServiceKind/String : Complete Main

    Скриншоты для ознакомления



    Все одноименные релизы в Клубе Время раздачи: 24/7 (до появления первых 3-5 скачавших)


    Королева Голливудского бульвара/The Queen of Hollywood Blvd (2017) WEB-DLRip [MVO] [AD]
    Рейтинг →
     (голосов: 1, оценка 4/5, голосовать можно 1 раз )

    Другие торренты по теме:

  • Снежная Королева: Зазеркалье (2018) WEB-DL [H.264 / 1080p-LQ]
  • Королева Марго / La reine Margot / Queen Margot (1994) BDRip [H.264 / 720p-LQ] [Hi10P] [New Directors Cut]
  • Королева / Queen (2014) HDRip скачать через торрент бесплатно
  • Королева бандитов-2 (2014) SATRip [Сезон 2, Серия 1-4 из 16] (Обновляемая) скачать через торрент бесплатно
  • Королева бандитов-2 (2014) HDTVRip [Сезон 2, Серия 1-4 из 16] (Обновляемая) скачать через торрент бесплатно
  • Королева Марго / La Reine Margot (1994) BDRip [720p] [New Directors Cut]
  • Звездные войны: Эпизод 4 - Новая надежда / Star Wars: Episode IV - A New Hope (1977) Despecialized Edition (телеканал орт, Гланс и Королева) скачать через торрент бесплатно
  • Снежная королева 2: Перезаморозка (2014) WEBRip скачать через торрент бесплатно


    • Комментарии (0):

      Информация

      Информация

        Посетители, находящиеся в группе Гости, не могут оставлять комментарии в данной новости.

        ↓ Меню




        ↓ Опрос

        Вы добавили сайт в закладки?
        Да
        Нет


        Top 10 за месяц (Другое)