.
Авторизация | Регистрация
Хочешь лучшие торренты? Добавь свой email!
Добавить

Торрент скачать бесплатно

  • support: webmaster@btracker.club
» » Мег: Монстр глубины / The Meg (2018) BDRip [H.264 / 1080p] [handmade 16:9] торрент скачать бесплатно


    Мег: Монстр глубины / The Meg (2018) BDRip [H.264 / 1080p] [handmade 16:9] торрент скачать бесплатно

    Опубликовал: fregat | Дата: 8-11-2018, 05:00 | .torrent скачали: 0

    Мег: Монстр глубины / The Meg (2018) BDRip [H.264 / 1080p] [handmade 16:9]Производство: США, Китай/Apelles Entertainmentm, Di Bonaventura Pictures...
    Жанр: Ужасы, Фантастика, Триллер
    Режиссер: Джон Тёртлтауб

    Актеры
    Джейсон Стэйтем, Ли Бинбин, Рэйн Уилсон, Клифф Кёртис, Уинстон Чао, Шуя Софиа Цай, Руби Роуз, Пейдж Кеннеди, Роберт Тейлор, Оулавюр Дарри Оулафссон

    Описание

    Глубоководный батискаф, осуществляющий наблюдение в рамках международной программы по изучению подводной жизни, был атакован огромным существом, которое все считали давно вымершим. Неисправный аппарат теперь лежит на дне глубочайшей впадины Тихого океана… с оказавшимся в ловушке экипажем. Их время на исходе. Китайский океанограф-новатор, несмотря на протесты его дочери Суинь, зовет спасателя-подводника Джонаса Тейлора, чтобы тот помог спасти команду и океан от невиданной угрозы — доисторической 23-метровой акулы, мегалодона. Никто и подумать не мог, что много лет назад Тейлор уже сталкивался с этим чудовищным созданием.

    Возраст: 16+ (зрителям, достигшим 16 лет)
    Рейтинг MPAA: PG-13 (детям до 13 лет просмотр нежелателен)
    Дата мировой премьеры: 8 августа 2018
    Дата российской премьеры: 9 августа 2018, Каро-Премьер
    Дата выхода DVD/Blu-ray релиза: 17 октября 2018, Warner Bros.
    Продолжительность: 01: 53: 13
    Качество видео: BDRip
    Перевод: Дублированный (iTunes)
    Субтитры: Русские (форс., полные), английские (полные)
    Видео: AVC/H.264, 1920x1080, ~ 10 Mbps
    Аудио #1: AC3, 6 ch, 384 Kbps - русский
    Аудио #2: DTS, 6 ch, 768 Kbps - английский

    Unique ID : 232310805407394065966441048251315463960 (0xAEC56F03F0D76FF7B16540F9486F2718)
    Complete name : D: TempМег Монстр Глубины FullScreen.mkv
    Format : Matroska
    Format version : Version 4/Version 2
    File size : 8.81 GiB
    Duration : 1h 53mn
    Overall bit rate : 11.1 Mbps
    Encoded date : UTC 2018-11-07 13: 00: 03
    Writing application : mkvmerge v9.8.0 ('Kuglblids') 64bit
    Writing library : libebml v1.3.4 + libmatroska v1.4.5
    Video
    ID : 1
    Format : AVC
    Format/Info : Advanced Video Codec
    Format profile : High@L4.1
    Format settings, CABAC : Yes
    Format settings, ReFrames : 4 frames
    Codec ID : V_MPEG4/ISO/AVC
    Duration : 1h 53mn
    Bit rate : 10 000 Kbps
    Width : 1 920 pixels
    Height : 1 080 pixels
    Display aspect ratio : 16: 9
    Frame rate mode : Constant
    Frame rate : 23.976 fps
    Color space : YUV
    Chroma subsampling : 4: 2: 0
    Bit depth : 8 bits
    Scan type : Progressive
    Bits/(Pixel*Frame) : 0.201
    Stream size : 7.72 GiB (88%)
    Writing library : x264 core 157 r2901M 7d0ff22
    Encoding settings : cabac=1/ref=4/deblock=1: -3: -3/analyse=0x3: 0x113/me=umh/subme=11/psy=1/psy_rd=1.05: 0.10/mixed_ref=1/me_range=24/chroma_me=1/trellis=2/8x8dct=1/cqm=0/deadzone=21, 11/fast_pskip=0/chroma_qp_offset=-3/threads=5/lookahead_threads=1/sliced_threads=0/nr=0/decimate=1/interlaced=0/bluray_compat=0/constrained_intra=0/bframes=6/b_pyramid=2/b_adapt=2/b_bias=0/direct=1/weightb=1/open_gop=0/weightp=2/keyint=240/keyint_min=24/scenecut=40/intra_refresh=0/rc=2pass/mbtree=0/bitrate=10000/ratetol=1.0/qcomp=0.70/qpmin=3/qpmax=69/qpstep=4/cplxblur=20.0/qblur=0.5/ip_ratio=1.40/pb_ratio=1.30/aq=2: 1.00
    Default : Yes
    Forced : No
    Audio #1
    ID : 2
    Format : AC-3
    Format/Info : Audio Coding 3
    Mode extension : CM (complete main)
    Format settings, Endianness : Big
    Codec ID : A_AC3
    Duration : 1h 53mn
    Bit rate mode : Constant
    Bit rate : 384 Kbps
    Channel(s) : 6 channels
    Channel positions : Front: L C R, Side: L R, LFE
    Sampling rate : 48.0 KHz
    Bit depth : 16 bits
    Compression mode : Lossy
    Stream size : 311 MiB (3%)
    Language : Russian
    Default : Yes
    Forced : No
    Audio #2
    ID : 3
    Format : DTS
    Format/Info : Digital Theater Systems
    Mode : 16
    Format settings, Endianness : Big
    Codec ID : A_DTS
    Duration : 1h 53mn
    Bit rate mode : Constant
    Bit rate : 768 Kbps
    Channel(s) : 6 channels
    Channel positions : Front: L C R, Side: L R, LFE
    Sampling rate : 48.0 KHz
    Bit depth : 16 bits
    Compression mode : Lossy
    Stream size : 622 MiB (7%)
    Language : English
    Default : No
    Forced : No
    Text #1
    ID : 4
    Format : UTF-8
    Codec ID : S_TEXT/UTF8
    Codec ID/Info : UTF-8 Plain Text
    Title : Форс.
    Language : Russian
    Default : Yes
    Forced : No
    Text #2
    ID : 5
    Format : UTF-8
    Codec ID : S_TEXT/UTF8
    Codec ID/Info : UTF-8 Plain Text
    Title : Полные
    Language : Russian
    Default : No
    Forced : No
    Text #3
    ID : 6
    Format : UTF-8
    Codec ID : S_TEXT/UTF8
    Codec ID/Info : UTF-8 Plain Text
    Title : SDH
    Language : English
    Default : No
    Forced : No

    Скриншоты для ознакомления



    Все одноименные релизы в Клубе
    Время раздачи: 24/7 (до появления первых 3-5 скачавших)


    Мег: Монстр глубины/The Meg (2018) BDRip [H.264/1080p] [handmade 16:9]
    Рейтинг →
     (голосов: 1, оценка 3/5, голосовать можно 1 раз )

    Другие торренты по теме:

  • Мег: Монстр глубины / The Meg (2018) CamRip [AD]
  • Мег: Монстр глубины / The Meg (2018) WEBRip [H.264 / 1080p-LQ] [EN / KOR Sub]
  • Мег: Монстр глубины / The Meg (2018) WEBRip [H.264 / 1080p-LQ] [MVO, AD]
  • Мег: Монстр глубины / The Meg (2018) WEBRip [Звук с TS] [AD]
  • Мег: Монстр глубины / The Meg (2018) WEBRip [H.264 / 720p-LQ] [Звук с TS] [AD]
  • Мег: Монстр глубины / The Meg (2018) WEBRip [MVO]
  • Мег: Монстр глубины / The Meg (2018) WEBRip [H.264 / 1080p-LQ] [MVO]
  • Мег: Монстр глубины / The Meg (2018) WEBRip [H.264 / 720p-LQ] [MVO]


    • Комментарии (0):

      Информация

      Информация

        Посетители, находящиеся в группе Гости, не могут оставлять комментарии в данной новости.

        ↓ Меню




        ↓ Опрос

        Вы добавили сайт в закладки?
        Да
        Нет


        Top 10 за месяц (Другое)