.
Авторизация | Регистрация
Хочешь лучшие торренты? Добавь свой email!
Добавить

Торрент скачать бесплатно

  • support: webmaster@btracker.club
» » Крестный отец / The Godfather (1972) BDRip [H.264 / 720p] [hand made 60fps] торрент скачать бесплатно


    Крестный отец / The Godfather (1972) BDRip [H.264 / 720p] [hand made 60fps] торрент скачать бесплатно

    Опубликовал: fregat | Дата: 31-10-2018, 05:00 | .torrent скачали: 0

    Крестный отец / The Godfather (1972) BDRip [H.264 / 720p] [hand made 60fps]Производство: США, Paramount Pictures, Alfran Productions
    Жанр: Драма, Криминал
    Режиссер: Фрэнсис Форд Коппола

    Актеры
    Марлон Брандо, Аль Пачино, Джеймс Каан, Роберт Дювалл, Ричард С. Кастеллано, Дайан Китон, Талия Шайр, Джон Казале, Аль Леттьери, Стерлинг Хейден

    Описание

    Криминальная сага, повествующая о нью-йоркской сицилийской мафиозной семье Корлеоне. Фильм охватывает период 1945-1955 годов.
    Глава семьи, Дон Вито Корлеоне, выдаёт замуж свою дочь. В это время со Второй мировой войны возвращается его любимый сын Майкл. Майкл, герой войны, гордость семьи, не выражает желания заняться жестоким семейным бизнесом. Дон Корлеоне ведёт дела по старым правилам, но наступают иные времена, и появляются люди, желающие изменить сложившиеся порядки. На Дона Корлеоне совершается покушение.

    Возраст: 16+ (зрителям, достигшим 16 лет)
    Рейтинг MPAA: R (лицам до 17 лет обязательно присутствие взрослого)
    Продолжительность: 02: 57: 09
    Качество видео: BDRip
    Перевод: Дублированный
    Субтитры: Русские(на итальянскую речь), английские (SDH)
    Видео: AVC/H.264, 1280x720, ~9999 Kbps
    Аудио #1: AC3, 6 ch, 384 Kbps | русский
    Аудио #2: AC3, 6 ch, 448 Kbps | английский

    Общее
    Уникальный идентификатор : 175032807345996077926521966632642457944 (0x83AE17AD8A991E32BBC5C179491AB158)
    Полное имя : C: UsersUserDesktopThe Godfather_720p.mkv
    Формат : Matroska
    Версия формата : Version 4
    Размер файла : 13, 4 Гбайт
    Продолжительность : 2 ч. 57 м.
    Общий поток : 10, 8 Мбит/сек
    Дата кодирования : UTC 2018-10-26 00: 01: 29
    Программа кодирования : mkvmerge v27.0.0 ('Metropolis') 64-bit
    Библиотека кодирования : libebml v1.3.6 + libmatroska v1.4.9
    Обложка : Yes
    Attachments : Cover.png
    Видео
    Идентификатор : 1
    Формат : AVC
    Формат/Информация : Advanced Video Codec
    Профиль формата : High@L4.1
    Настройки формата : CABAC/8 Ref Frames
    Параметр CABAC формата : Да
    Параметр RefFrames формата : 8 кадров
    Идентификатор кодека : V_MPEG4/ISO/AVC
    Продолжительность : 2 ч. 57 м.
    Битрейт : 9999 Кбит/сек
    Ширина : 1280 пикселей
    Высота : 720 пикселей
    Соотношение сторон : 16: 9
    Режим частоты кадров : Постоянный
    Частота кадров : 59, 940 (60000/1001) кадров/сек
    Цветовое пространство : YUV
    Субдискретизация насыщенности : 4: 2: 0
    Битовая глубина : 8 бит
    Тип развёртки : Прогрессивная
    Бит/(Пиксели*Кадры) : 0.181
    Размер потока : 12, 4 Гбайт (92%)
    Библиотека кодирования : x264 core 146 r2538 121396c
    Настройки программы : cabac=1/ref=8/deblock=1: -2: -2/analyse=0x3: 0x133/me=esa/subme=9/psy=1/psy_rd=1.00: 0.25/mixed_ref=1/me_range=32/chroma_me=1/trellis=2/8x8dct=1/cqm=0/deadzone=6, 6/fast_pskip=1/chroma_qp_offset=-4/threads=12/lookahead_threads=1/sliced_threads=0/nr=0/decimate=0/interlaced=0/bluray_compat=0/constrained_intra=0/bframes=3/b_pyramid=2/b_adapt=2/b_bias=0/direct=3/weightb=1/open_gop=0/weightp=2/keyint=599/keyint_min=59/scenecut=40/intra_refresh=0/rc_lookahead=60/rc=2pass/mbtree=1/bitrate=9999/ratetol=1.0/qcomp=0.80/qpmin=0/qpmax=69/qpstep=4/cplxblur=20.0/qblur=0.5/vbv_maxrate=62500/vbv_bufsize=78125/nal_hrd=none/filler=0/ip_ratio=1.10/aq=1: 0.50
    Default : Да
    Forced : Нет
    Аудио #1
    Идентификатор : 2
    Формат : AC-3
    Формат/Информация : Audio Coding 3
    Коммерческое название : Dolby Digital
    Идентификатор кодека : A_AC3
    Продолжительность : 2 ч. 57 м.
    Вид битрейта : Постоянный
    Битрейт : 384 Кбит/сек
    Каналы : 6 каналов
    Channel layout : L R C LFE Ls Rs
    Частота : 48, 0 КГц
    Частота кадров : 31, 250 кадров/сек (1536 SPF)
    Битовая глубина : 16 бит
    Метод сжатия : С потерями
    Размер потока : 487 Мбайт (4%)
    Заголовок : Дублированный
    Язык : Russian
    ServiceKind/String : Complete Main
    Default : Да
    Forced : Нет
    Аудио #2
    Идентификатор : 3
    Формат : AC-3
    Формат/Информация : Audio Coding 3
    Коммерческое название : Dolby Digital
    Идентификатор кодека : A_AC3
    Продолжительность : 2 ч. 57 м.
    Вид битрейта : Постоянный
    Битрейт : 448 Кбит/сек
    Каналы : 6 каналов
    Channel layout : L R C LFE Ls Rs
    Частота : 48, 0 КГц
    Частота кадров : 31, 250 кадров/сек (1536 SPF)
    Битовая глубина : 16 бит
    Метод сжатия : С потерями
    Размер потока : 568 Мбайт (4%)
    Заголовок : Оригинал
    Язык : English
    ServiceKind/String : Complete Main
    Default : Нет
    Forced : Нет
    Текст #1
    Идентификатор : 4
    Формат : UTF-8
    Идентификатор кодека : S_TEXT/UTF8
    Идентификатор кодека/Информация : UTF-8 Plain Text
    Продолжительность : 2 ч. 5 м.
    Битрейт : 5 бит/сек
    ElementCount : 112
    Размер потока : 5, 00 Кбайт (0%)
    Заголовок : на итальянскую речь
    Язык : Russian
    Default : Да
    Forced : Нет
    Текст #2
    Идентификатор : 5
    Формат : UTF-8
    Идентификатор кодека : S_TEXT/UTF8
    Идентификатор кодека/Информация : UTF-8 Plain Text
    Продолжительность : 2 ч. 51 м.
    Битрейт : 42 бит/сек
    ElementCount : 1312
    Размер потока : 53, 1 Кбайт (0%)
    Язык : English
    Default : Нет
    Forced : Нет
    Текст #3
    Идентификатор : 6
    Формат : UTF-8
    Идентификатор кодека : S_TEXT/UTF8
    Идентификатор кодека/Информация : UTF-8 Plain Text
    Продолжительность : 2 ч. 51 м.
    Битрейт : 45 бит/сек
    ElementCount : 1483
    Размер потока : 56, 8 Кбайт (0%)
    Заголовок : SDH
    Язык : English
    Default : Нет
    Forced : Нет
    Меню
    00: 00: 00.000 : en: 00: 00: 00.000
    00: 07: 30.784 : en: 00: 07: 30.784
    00: 18: 03.624 : en: 00: 18: 03.624
    00: 27: 03.455 : en: 00: 27: 03.455
    00: 34: 20.183 : en: 00: 34: 20.183
    00: 40: 17.749 : en: 00: 40: 17.749
    00: 48: 52.304 : en: 00: 48: 52.304
    00: 58: 18.328 : en: 00: 58: 18.328
    01: 08: 44.579 : en: 01: 08: 44.579
    01: 15: 49.003 : en: 01: 15: 49.003
    01: 30: 00.687 : en: 01: 30: 00.687
    01: 37: 06.863 : en: 01: 37: 06.863
    01: 46: 18.163 : en: 01: 46: 18.163
    01: 49: 30.189 : en: 01: 49: 30.189
    01: 53: 57.664 : en: 01: 53: 57.664
    02: 03: 21.311 : en: 02: 03: 21.311
    02: 06: 37.256 : en: 02: 06: 37.256
    02: 13: 28.125 : en: 02: 13: 28.125
    02: 19: 47.462 : en: 02: 19: 47.462
    02: 25: 56.706 : en: 02: 25: 56.706
    02: 36: 56.032 : en: 02: 36: 56.032
    02: 44: 43.540 : en: 02: 44: 43.540
    02: 53: 05.750 : en: 02: 53: 05.750

    Скриншоты для ознакомления



    Все одноименные релизы в Клубе
    Время раздачи: 24/7 (до появления первых 3-5 скачавших)


    Крестный отец/The Godfather (1972) BDRip [H.264/720p] [hand made 60fps]
    Рейтинг →
     (голосов: 1, оценка 4/5, голосовать можно 1 раз )

    Другие торренты по теме:

  • Крестный отец: Трилогия / The Godfather: Trilogy (1972,1974,1990) BDRip [H.264 / 720p-LQ] [Hi10P] скачать через торрент бесплатно
  • Крестный отец: Трилогия / The Godfather: Trilogy (1972,1974,1990) BDRip [H.264] скачать через торрент бесплатно
  • Крестный отец / The Godfather Collection (1972 - 1990) BDRip [H.264] [The Coppola Restoration] [Трилогия] скачать через торрент бесплатно
  • Крестный отец 2 / The Godfather: Part II (1974) BDRip [H.264 / 720p] скачать через торрент бесплатно
  • Крестный отец / The Godfather (1972) BDRip [H.264 / 720p] скачать через торрент бесплатно
  • Nino Rota - Крестный отец / Godfather (1972) [AAC|WEB-DL|256 кб / с]<Score> скачать через торрент бесплатно
  • Иван Просветов | «Крестный отец» Штирлица (2015) [FB2] скачать через торрент бесплатно
  • Крестный отец / The Godfather Collection: The Coppola Restoration (1972-1990) BDRemux [H.264 / 1080p] [Трилогия] скачать через торрент бесплатно


    • Комментарии (0):

      Информация

      Информация

        Посетители, находящиеся в группе Гости, не могут оставлять комментарии в данной новости.

        ↓ Меню




        ↓ Опрос

        Вы добавили сайт в закладки?
        Да
        Нет


        Top 10 за месяц (Другое)