.
Авторизация | Регистрация
Хочешь лучшие торренты? Добавь свой email!
Добавить

Торрент скачать бесплатно

  • support: webmaster@btracker.club
» » Синистер 2 / Sinister 2 (2015) BDRip [H.264 / 1080p-LQ] [handmade 16:9] торрент скачать бесплатно


    Синистер 2 / Sinister 2 (2015) BDRip [H.264 / 1080p-LQ] [handmade 16:9] торрент скачать бесплатно

    Опубликовал: fregat | Дата: 30-10-2018, 05:00 | .torrent скачали: 1

    Синистер 2 / Sinister 2 (2015) BDRip [H.264 / 1080p-LQ] [handmade 16:9]Производство: США, Великобритания/Alliance Films, Blumhouse Productions
    Жанр: ужасы, триллер, детектив
    Режиссер: Киран Фой

    Актеры
    Джеймс Рэнсон, Шаннин Соссамон, Роберт Дэниэл Слоун, Дартаниан Слоун, Лиа Коко, Тейт Эллингтон, Джон Бизли, Лукас Джейд Зуманн, Джейден Клейн, Лайла Хейли

    Описание

    Молодой шериф решил продолжить расследование серии таинственных убийств, из-за которых в своё время потерял жизнь друг шерифа Элиссон Освальт.
    Расследование приводит шерифа к ферме, где он знакомится с дружелюбной семьёй — близнецами Заком и Диланом и их матерью Кортни. Семьёй, сбежавшей от издевательств жестокого отца. Но у одного из братьев есть своя страшная тайна - мертвые дети в подвале, смотрящие на белом экране с помощью стародавнего киноаппарата сцены пыток и убийств. Постепенно вся семья втягивается в смертельную ловушку, и опасность теперь можно ожидать от любого из них. Каждый день, проведённый в этом доме, может стать для них последним, как и для всех, кто жил здесь ранее и попал в поле зрения самой смерти — беспощадного демона Багула.

    Возраст: 18+ (зрителям, достигшим 18 лет. запрещено для детей)
    Рейтинг MPAA: R (лицам до 17 лет обязательно присутствие взрослого)
    Дата мировой премьеры: 19 августа 2015
    Дата российской премьеры: 20 августа 2015, Top Film Distribution
    Продолжительность: 01: 36: 44
    Качество: BDRip 1080p
    Перевод: Дублированный (BD RUS)
    Субтитры: Русские (полные), Английские (полные)
    Видео: AVC/H.264, 1920x1080, ~ 5Mbps
    Аудио #1: AC3, 6 ch, 640 Kbps - Русский
    Аудио #2: AC3, 6 ch, 640 Kbps - Английский

    x264 info: frame I: 970 Avg QP: 18.49 size: 121314
    x264 info: frame P: 34068 Avg QP: 19.57 size: 44362
    x264 info: frame B: 104259 Avg QP: 20.87 size: 18716
    Unique ID : 213781260908395797710932298864863789002 (0xA0D4C5EFFDE5772DA139AA926B2CBFCA)
    Complete name : D: Sinister 2 Full Screen.mkv
    Format : Matroska
    Format version : Version 4/Version 2
    File size : 4.24 GiB
    Duration : 1h 36mn
    Overall bit rate : 6 277 Kbps
    Movie name : Sinister_2.2015.BDRip.1080p.W
    Encoded date : UTC 2018-10-29 03: 35: 24
    Writing application : mkvmerge v9.8.0 ('Kuglblids') 64bit
    Writing library : libebml v1.3.4 + libmatroska v1.4.5
    Video
    ID : 1
    Format : AVC
    Format/Info : Advanced Video Codec
    Format profile : High@L4.1
    Format settings, CABAC : Yes
    Format settings, ReFrames : 4 frames
    Codec ID : V_MPEG4/ISO/AVC
    Duration : 1h 36mn
    Bit rate : 5 000 Kbps
    Width : 1 920 pixels
    Height : 1 080 pixels
    Display aspect ratio : 16: 9
    Frame rate mode : Constant
    Frame rate : 24.000 fps
    Color space : YUV
    Chroma subsampling : 4: 2: 0
    Bit depth : 8 bits
    Scan type : Progressive
    Bits/(Pixel*Frame) : 0.100
    Stream size : 3.29 GiB (78%)
    Writing library : x264 core 157 r2901M 7d0ff22
    Encoding settings : cabac=1/ref=4/deblock=1: -3: -3/analyse=0x3: 0x113/me=umh/subme=11/psy=1/psy_rd=1.05: 0.10/mixed_ref=1/me_range=24/chroma_me=1/trellis=2/8x8dct=1/cqm=0/deadzone=21, 11/fast_pskip=0/chroma_qp_offset=-3/threads=5/lookahead_threads=1/sliced_threads=0/nr=0/decimate=1/interlaced=0/bluray_compat=0/constrained_intra=0/bframes=6/b_pyramid=2/b_adapt=2/b_bias=0/direct=1/weightb=1/open_gop=0/weightp=2/keyint=240/keyint_min=24/scenecut=40/intra_refresh=0/rc=2pass/mbtree=0/bitrate=5000/ratetol=1.0/qcomp=0.70/qpmin=3/qpmax=69/qpstep=4/cplxblur=20.0/qblur=0.5/ip_ratio=1.40/pb_ratio=1.30/aq=2: 1.00
    Default : Yes
    Forced : No
    Audio #1
    ID : 2
    Format : AC-3
    Format/Info : Audio Coding 3
    Mode extension : CM (complete main)
    Format settings, Endianness : Big
    Codec ID : A_AC3
    Duration : 1h 36mn
    Bit rate mode : Constant
    Bit rate : 640 Kbps
    Channel(s) : 6 channels
    Channel positions : Front: L C R, Side: L R, LFE
    Sampling rate : 48.0 KHz
    Bit depth : 16 bits
    Compression mode : Lossy
    Stream size : 443 MiB (10%)
    Default : Yes
    Forced : No
    Audio #2
    ID : 3
    Format : AC-3
    Format/Info : Audio Coding 3
    Mode extension : CM (complete main)
    Format settings, Endianness : Big
    Codec ID : A_AC3
    Duration : 1h 36mn
    Bit rate mode : Constant
    Bit rate : 640 Kbps
    Channel(s) : 6 channels
    Channel positions : Front: L C R, Side: L R, LFE
    Sampling rate : 48.0 KHz
    Bit depth : 16 bits
    Compression mode : Lossy
    Stream size : 443 MiB (10%)
    Default : No
    Forced : No
    Text #1
    ID : 4
    Format : UTF-8
    Codec ID : S_TEXT/UTF8
    Codec ID/Info : UTF-8 Plain Text
    Title : Full
    Language : Russian
    Default : No
    Forced : No
    Text #2
    ID : 5
    Format : UTF-8
    Codec ID : S_TEXT/UTF8
    Codec ID/Info : UTF-8 Plain Text
    Title : Full
    Language : English
    Default : No
    Forced : No

    Скриншоты для ознакомления



    Все одноименные релизы в Клубе
    Время раздачи: (до появления первых 3-5 скачавших)


    Синистер 2/Sinister 2 (2015) BDRip [H.264/1080p-LQ] [handmade 16:9]
    Рейтинг →
     (голосов: 1, оценка 4/5, голосовать можно 1 раз )

    Другие торренты по теме:

  • Синистер / Sinister (2012-2015) BDRip [H.264 / 1080p-LQ] [Дилогия]
  • Синистер 2 / Sinister 2 (2015) CamRip скачать через торрент бесплатно
  • Синистер 2 / Sinister 2 (2015) WEB-DLRip [Звук с CamRip] скачать через торрент бесплатно
  • Синистер 2 / Sinister 2 (2015) WEB-DL [H.264 / 720p-LQ] [Звук с CamRip] скачать через торрент бесплатно
  • Синистер 2 / Sinister 2 (2015) BDRemux [H.264 / 1080p] [EN / Da, Fi, No, Sw Sub] скачать через торрент бесплатно
  • Синистер 2 / Sinister 2 (2015) HDRip [Line] скачать через торрент бесплатно
  • Синистер 2 / Sinister 2 (2015) BDRip [H.264 / 720p] [Line] скачать через торрент бесплатно
  • Синистер 2 / Sinister 2 (2015) AC3 5.1 [hand made] скачать через торрент бесплатно


    • Комментарии (0):

      Информация

      Информация

        Посетители, находящиеся в группе Гости, не могут оставлять комментарии в данной новости.

        ↓ Меню




        ↓ Опрос

        Вы добавили сайт в закладки?
        Да
        Нет


        Top 10 за месяц (Другое)