.
Авторизация | Регистрация
Хочешь лучшие торренты? Добавь свой email!
Добавить

Торрент скачать бесплатно

  • support: webmaster@btracker.club
» » МакХер / McDick (2017) WEB-DLRip [H.264 / 720p-LQ] [MVO, AD] торрент скачать бесплатно


    МакХер / McDick (2017) WEB-DLRip [H.264 / 720p-LQ] [MVO, AD] торрент скачать бесплатно

    Опубликовал: fregat | Дата: 27-10-2018, 05:01 | .torrent скачали: 2

    МакХер / McDick (2017) WEB-DLRip [H.264 / 720p-LQ] [MVO, AD]Производство: США/Wallace Road Pictures, Exertion Films, Starling Entertainment
    Жанр: Комедия
    Режиссер: Крис МакДоннел
    Продюсер: Дэвид Бьянчи, Патч МакКензи, Крис МакДоннел

    Актеры
    Крис МакДоннел, Мо Коллинз, Питер Брейтмайер, Дэнни Трехо, Аманда Конлон, Санджай Малхотра, Брэндон Матуэй, Захари Уобенсмит, Эмили Лоб, Кейси Уэбб

    Описание

    Худшего в мире копа увольняют и он становится худшим в мире частным детективом. По неизвестной причине он становится целью всех преступников в городе. Ему придётся преодолеть свою некомпетентность и черты характера, чтобы разобраться с проблемой и сохранить свою жизнь.

    Дата мировой премьеры: 7 октября 2017
    Продолжительность: 01: 24: 15
    Качество видео: WEB-DLRip
    Перевод: Многоголосый закадровый, любительский (Синема УС)
    Субтитры: Отсутствуют
    Реклама: Присутствуют вставки текстовой и видео рекламы
    Видео: AVC/H.264, 1280x720 (16: 9), ~4850 Kbps
    Аудио: AC3, 2 ch, 384 Kbps - Русский

    Общее
    Уникальный идентификатор : 194369501292785303477673853559499644134 (0x923A344BCB80A6E1AE90254BF24FDCE6)
    Полное имя : /Users/NNM-CLUB/McDick.2017.WEB-DL.720p.mkv
    Формат : Matroska
    Версия формата : Version 2
    Размер файла : 3, 08 Гбайт
    Продолжительность : 1 ч. 24 м.
    Режим общего битрейта : Переменный
    Общий поток : 5235 Кбит/сек
    Дата кодирования : UTC 2018-10-26 17: 51: 39
    Программа кодирования : mkvmerge v8.3.0 (\'Over the Horizon\') 64bit
    Библиотека кодирования : libebml v1.3.1 + libmatroska v1.4.2
    Видео
    Идентификатор : 1
    Формат : AVC
    Формат/Информация : Advanced Video Codec
    Профиль формата : High@L4.1
    Настройки формата : CABAC/4 Ref Frames
    Параметр CABAC формата : Да
    Параметр ReFrames формата : 4 кадра
    Идентификатор кодека : V_MPEG4/ISO/AVC
    Продолжительность : 1 ч. 24 м.
    Вид битрейта : Переменный
    Битрейт : 4850 Кбит/сек
    Максимальный битрейт : 5500 Кбит/сек
    Ширина : 1280 пикселей
    Высота : 720 пикселей
    Соотношение сторон : 16: 9
    Режим частоты кадров : Постоянный
    Частота кадров : 23, 976 (24000/1001) кадра/сек
    Стандарт вещания : Component
    Цветовое пространство : YUV
    Субдискретизация насыщенности : 4: 2: 0
    Битовая глубина : 8 бит
    Тип развёртки : Прогрессивная
    Бит/(Пиксели*Кадры) : 0.219
    Размер потока : 2, 85 Гбайт (93%)
    Default : Да
    Forced : Нет
    Цветовой диапазон : Limited
    Основные цвета : BT.709
    Характеристики трансфера : BT.709
    Коэффициенты матрицы : BT.709
    Аудио
    Идентификатор : 2
    Формат : AC-3
    Формат/Информация : Audio Coding 3
    Коммерческое название : Dolby Digital
    Идентификатор кодека : A_AC3
    Продолжительность : 1 ч. 24 м.
    Вид битрейта : Постоянный
    Битрейт : 384 Кбит/сек
    Каналы : 2 канала
    Channel layout : L R
    Частота : 48, 0 КГц
    Частота кадров : 31, 250 кадров/сек (1536 SPF)
    Битовая глубина : 16 бит
    Метод сжатия : С потерями
    Размер потока : 231 Мбайт (7%)
    Service kind : Complete Main
    Default : Да
    Forced : Нет

    Скриншоты для ознакомления



    Все одноименные релизы в Клубе
    Время раздачи: 24/7 (круглосуточно) (до появления первых 3-5 скачавших)


    МакХер/McDick (2017) WEB-DLRip [H.264/720p-LQ] [MVO, AD]
    Рейтинг →
     (голосов: 1, оценка 5/5, голосовать можно 1 раз )

    Другие торренты по теме:



      Комментарии (0):

      Информация

      Информация

        Посетители, находящиеся в группе Гости, не могут оставлять комментарии в данной новости.

        ↓ Меню




        ↓ Опрос

        Вы добавили сайт в закладки?
        Да
        Нет


        Top 10 за месяц (Другое)