.
Авторизация | Регистрация
Хочешь лучшие торренты? Добавь свой email!
Добавить

Торрент скачать бесплатно

  • support: webmaster@btracker.club
» » Книжный магазин / The Bookshop (2017) HDRip [H.264] [MVO] [AD] торрент скачать бесплатно


    Книжный магазин / The Bookshop (2017) HDRip [H.264] [MVO] [AD] торрент скачать бесплатно

    Опубликовал: board8turnip | Дата: 26-10-2018, 12:18 | .torrent скачали: 0

    Книжный магазин / The Bookshop (2017) HDRip [H.264] [MVO] [AD]Производство: Великобритания, Испания, Германия/A Contracorriente Films, arte, Diagonal TV
    Жанр: Драма
    Режиссер: Изабель Койшет

    Актеры
    Эмили Мортимер, Билл Найи, Патриша Кларксон, Хантер Тремейн, Хонор Книфси, Джеймс Лэнс, Фрэнсис Барбер, Рег Уилсон, Майкл Фицджералд, Люси Бекуив

    Описание

    Конец 1950-х. Молодая вдова Флоренс Грин осуществляет свою мечту: купив обшарпанный домик в сонном прибрежном английском городке, девушка открывает книжный магазин, шокируя местных консерваторов радикальной литературой вроде Лолиты и 451 градуса по Фаренгейту. Поддержку библиофил Флоренс находит только у замкнутого вдовца, мистера Брандиша.

    Рейтинг MPAA: PG (рекомендуется присутствие родителей)
    Продолжительность: 01: 53: 30
    Качество видео: HDRip
    Перевод: Многоголосый закадровый, любительский (GreenРай Studio)
    Субтитры: отсутствуют
    Реклама: аудио, видео и текстовые вставки рекламы
    Видео: AVC/H.264, 720x384, ~800 Kbps
    Аудио: AC3, 2 ch, 192 Kbps

    General
    Unique ID : 299961491008594164125582763078601573921 (0xE1AA7B5541786C8261CC46339C968621)
    Complete name : /media/win/TORRENT/UPLOAD_TORRENTS/The.Bookshop.2017.P.HDRip.mkv
    Format : Matroska
    Format version : Version 4/Version 2
    File size : 808 MiB
    Duration : 1 h 53 min
    Overall bit rate : 995 kb/s
    Movie name : The.Bookshop.2017.P.HDRip
    Encoded date : UTC 2018-07-21T09: 30: 25Z
    Writing application : HandBrake 1.1.1 2018061800
    Writing library : Lavf57.7.2
    Video
    ID : 1
    Format : AVC
    Format/Info : Advanced Video Codec
    Format profile : High@L4
    Format settings : CABAC/12 Ref Frames
    Format settings, CABAC : Yes
    Format settings, ReFrames : 12 frames
    Codec ID : V_MPEG4/ISO/AVC
    Duration : 1 h 53 min
    Bit rate : 800 kb/s
    Width : 720 pixels
    Height : 384 pixels
    Display aspect ratio : 1.85: 1
    Frame rate mode : Constant
    Frame rate : 23.976 (24000/1001) FPS
    Color space : YUV
    Chroma subsampling : 4: 2: 0
    Bit depth : 8 bits
    Scan type : Progressive
    Bits/(Pixel*Frame) : 0.121
    Stream size : 636 MiB (79%)
    Writing library : x264 core 152 r2854 e9a5903
    Encoding settings : cabac=1/ref=12/deblock=1: 0: 0/analyse=0x3: 0x113/me=umh/subme=9/psy=1/psy_rd=1, 00: 0, 00/mixed_ref=1/me_range=24/chroma_me=1/trellis=1/8x8dct=1/cqm=0/deadzone=21, 11/fast_pskip=1/chroma_qp_offset=-2/threads=6/lookahead_threads=1/sliced_threads=0/nr=0/decimate=1/interlaced=0/bluray_compat=0/constrained_intra=0/bframes=6/b_pyramid=2/b_adapt=2/b_bias=0/direct=1/weightb=1/open_gop=0/weightp=1/keyint=240/keyint_min=24/scenecut=40/intra_refresh=0/rc_lookahead=30/rc=2pass/mbtree=1/bitrate=800/ratetol=1, 0/qcomp=0, 60/qpmin=0/qpmax=69/qpstep=4/cplxblur=20, 0/qblur=0, 5/vbv_maxrate=25000/vbv_bufsize=31250/nal_hrd=none/filler=0/ip_ratio=1, 40/aq=1: 1, 00
    Default : Yes
    Forced : No
    Color range : Limited
    Color primaries : BT.601 NTSC
    Transfer characteristics : BT.709
    Matrix coefficients : BT.601
    Audio
    ID : 2
    Format : AC-3
    Format/Info : Audio Coding 3
    Codec ID : A_AC3
    Duration : 1 h 53 min
    Bit rate mode : Constant
    Bit rate : 192 kb/s
    Channel(s) : 2 channels
    Channel positions : Front: L R
    Sampling rate : 48.0 kHz
    Frame rate : 31.250 FPS (1536 SPF)
    Bit depth : 16 bits
    Compression mode : Lossy
    Stream size : 156 MiB (19%)
    Title : Stereo
    Service kind : Complete Main
    Default : Yes
    Forced : No


    Книжный магазин/The Bookshop (2017) HDRip [H.264] [MVO] [AD]
    Рейтинг →
     (голосов: 1, оценка 3/5, голосовать можно 1 раз )

    Другие торренты по теме:

  • Denki-gai no Honya-san / Книжный магазин в Дэнкигай [2014, TV, 2 из >12] HDTV 720p Hi10p raw скачать через торрент бесплатно
  • Denki-gai no Hon`ya-san | Denki-Gai no Honya-san | Книжный магазин в Дэнкигай [2014, TV, 12] BDrip 1080p raw
  • Книжный магазин Блэка / Black Books (2000–2004) DVDRip [H.264] (сезоны 1-3, серии 1-18 из 18) Ozz
  • Книжный магазин / The Bookshop (2017) BDRemux [H.264 / 1080p] [EN / Sp, Cat Sub]


    • Комментарии (0):

      Информация

      Информация

        Посетители, находящиеся в группе Гости, не могут оставлять комментарии в данной новости.

        ↓ Меню




        ↓ Опрос

        Вы добавили сайт в закладки?
        Да
        Нет


        Top 10 за месяц (Другое)