.
Авторизация | Регистрация
Хочешь лучшие торренты? Добавь свой email!
Добавить

Торрент скачать бесплатно

  • support: webmaster@btracker.club
» » Останься со мной / The Keeping Hours (2017) WEB-DLRip [H.264 / 1080p-LQ] [Line, AD] торрент скачать бесплатно


    Останься со мной / The Keeping Hours (2017) WEB-DLRip [H.264 / 1080p-LQ] [Line, AD] торрент скачать бесплатно

    Опубликовал: fregat | Дата: 25-10-2018, 05:00 | .torrent скачали: 0

    Останься со мной / The Keeping Hours (2017) WEB-DLRip [H.264 / 1080p-LQ] [Line, AD]Производство: США/Blumhouse Productions
    Жанр: Ужасы, Триллер, Драма, Мелодрама
    Режиссер: Карен Монкрифф

    Актеры
    Ли Пейс, Кэрри Кун, Эми Смарт, Молли Хэйгэн, Ана Ортис, Анна Диоп, Кристина Видаль, Рэй Бэйкер, Клифф Чемберлен, Джейн Дэйли

    Описание

    Десять лет назад в жизни главных героев произошла трагедия - в автомобильной аварии погиб их сын, Джейкоб. И вот спустя десять лет благодаря череде мистических событий у разведённых супругов появляется шанс искупить вину и обрести прощение.

    Рейтинг MPAA: PG-13 (детям до 13 лет просмотр нежелателен)
    Продолжительность: 01: 35: 43
    Качество видео: WEB-DLRip
    Перевод: Дублированный (чистый звук)
    Субтитры: Отсутствуют
    Реклама: Присутствует текстовая, аудио и видео реклама
    Видео: AVC/H.264, 1916x796, ~5327 Kbps
    Аудио: AC3, 2 ch, 384 Kbps

    Общее
    Уникальный идентификатор : 195229108794329225901735992974585312876 (0x92DFC237D2E2EE6AA2B3992B45EB366C)
    Полное имя : C: UsersUserDownloadsThe.Keeping.Hours.2O18.D.WEB-DL.1O8Op.mkv
    Формат : Matroska
    Версия формата : Version 2
    Размер файла : 3, 90 Гбайт
    Продолжительность : 1 ч. 35 м.
    Режим общего битрейта : Переменный
    Общий поток : 5827 Кбит/сек
    Дата кодирования : UTC 2018-10-22 10: 09: 27
    Программа кодирования : mkvmerge v8.3.0 ('Over the Horizon') 64bit
    Библиотека кодирования : libebml v1.3.1 + libmatroska v1.4.2
    Видео
    Идентификатор : 2
    Формат : AVC
    Формат/Информация : Advanced Video Codec
    Профиль формата : High@L4.1
    Настройки формата : CABAC/4 Ref Frames
    Параметр CABAC формата : Да
    Параметр RefFrames формата : 4 кадра
    Идентификатор кодека : V_MPEG4/ISO/AVC
    Продолжительность : 1 ч. 35 м.
    Вид битрейта : Переменный
    Битрейт : 5327 Кбит/сек
    Максимальный битрейт : 6100 Кбит/сек
    Ширина : 1916 пикселей
    Высота : 796 пикселей
    Соотношение сторон : 2, 40: 1
    Режим частоты кадров : Постоянный
    Частота кадров : 23, 976 (24000/1001) кадра/сек
    Стандарт вещания : Component
    Цветовое пространство : YUV
    Субдискретизация насыщенности : 4: 2: 0
    Битовая глубина : 8 бит
    Тип развёртки : Прогрессивная
    Бит/(Пиксели*Кадры) : 0.146
    Размер потока : 3, 56 Гбайт (91%)
    Default : Да
    Forced : Нет
    Цветовой диапазон : Limited
    Основные цвета : BT.709
    Характеристики трансфера : BT.709
    Коэффициенты матрицы : BT.709
    Аудио
    Идентификатор : 1
    Формат : AC-3
    Формат/Информация : Audio Coding 3
    Коммерческое название : Dolby Digital
    Идентификатор кодека : A_AC3
    Продолжительность : 1 ч. 35 м.
    Вид битрейта : Постоянный
    Битрейт : 384 Кбит/сек
    Каналы : 2 канала
    Channel layout : L R
    Частота : 48, 0 КГц
    Частота кадров : 31, 250 кадров/сек (1536 SPF)
    Битовая глубина : 16 бит
    Метод сжатия : С потерями
    Размер потока : 263 Мбайт (7%)
    ServiceKind/String : Complete Main
    Default : Да
    Forced : Нет

    Скриншоты для ознакомления



    Все одноименные релизы в Клубе
    Время раздачи: 24/7 (до появления первых 3-5 скачавших)


    Останься со мной/The Keeping Hours (2017) WEB-DLRip [H.264/1080p-LQ] [Line, AD]
    Рейтинг →
     (голосов: 1, оценка 4/5, голосовать можно 1 раз )

    Другие торренты по теме:

  • Останься со мной / Stand by Me (1986) BDRip [720p] [25th Anniversary Edition] [VO]
  • Дораэмон: Останься со мной / Stand by Me Doraemon (2014) BDRip 3D [H.264 / 1080p] [Вертикальная анаморфная стереопара] скачать через торрент бесплатно
  • Дораэмон: Останься со мной / Stand by Me Doraemon (2014) BDRip [H.264 / 720p]
  • Дораэмон: Останься со мной / Stand by Me Doraemon (2014) BDRemux 3D [H.264 / 1080p] [ISO]
  • Останься со мной / The Keeping Hours (2017) WEB-DLRip [MVO] [AD]
  • Останься со мной / Stand by Me (1986) BDRip [H.264 / 1080p-LQ]


    • Комментарии (0):

      Информация

      Информация

        Посетители, находящиеся в группе Гости, не могут оставлять комментарии в данной новости.

        ↓ Меню




        ↓ Опрос

        Вы добавили сайт в закладки?
        Да
        Нет


        Top 10 за месяц (Другое)