.
Авторизация | Регистрация
Хочешь лучшие торренты? Добавь свой email!
Добавить

Торрент скачать бесплатно

  • support: webmaster@btracker.club
» » Взаперти / Michael Inside (2017) WEB-DLRip [MVO] [AD] торрент скачать бесплатно


    Взаперти / Michael Inside (2017) WEB-DLRip [MVO] [AD] торрент скачать бесплатно

    Опубликовал: fregat | Дата: 18-10-2018, 05:00 | .torrent скачали: 1

    Взаперти / Michael Inside (2017) WEB-DLRip [MVO] [AD]Производство: Ирландия/Subotica Entertainment Ltd.
    Жанр: Драма
    Режиссер: Фрэнк Берри
    Продюсер: Донна Эперон, Ифа О’Салливан, Тристан Линч

    Актеры
    Дафхуд Флайн, Лалор Родди, Мо Данфорд, Робби Уолш, Стив Блонт, Хэйзел Дуп, Джон Бурк, Тони Дойл, Гари Иган, Шэйн Гейтли

    Описание

    Восемнадцатилетний подросток из Дублина по глупости попадает в тюрьму за хранение наркотиков для близкого друга и оказывается затянут в порочный круг системы реабилитации, из которого невозможно выбраться.

    Дата мировой премьеры: 14 июля 2017
    Продолжительность: 01: 38: 41
    Качество видео: WEB-DLRip
    Перевод: Многоголосый закадровый, любительский (Синема УС)
    Субтитры: Отсутствуют
    Реклама: Присутствуют вставки текстовой, аудио и видео рекламы
    Видео: Xvid, 720x304 (2.35: 1), ~1590 Kbps
    Аудио: AC3, 2 ch, 384 Kbps | Русский

    Общее
    Полное имя : /Users/NNM-CLUB/Michael.Inside.2018.WEB-DLRip.avi
    Формат : AVI
    Формат/Информация : Audio Video Interleave
    Размер файла : 1, 37 Гбайт
    Продолжительность : 1 ч. 38 м.
    Общий поток : 1983 Кбит/сек
    Программа кодирования : VirtualDubMod 1.5.10.2 (build 2540/release)
    Библиотека кодирования : VirtualDubMod build 2540/release
    Видео
    Идентификатор : 0
    Формат : MPEG-4 Visual
    Профиль формата : Advanced Simple@L5
    Настройки формата : BVOP2/Custom Matrix
    Параметр BVOP формата : 2
    Параметр QPel формата : Нет
    Параметр GMC формата : Без точки перехода
    Параметр матрицы формата : Выборочная
    Идентификатор кодека : XVID
    Идентификатор кодека/Подсказка : XviD
    Продолжительность : 1 ч. 38 м.
    Битрейт : 1590 Кбит/сек
    Ширина : 720 пикселей
    Высота : 304 пикселя
    Соотношение сторон : 2, 35: 1
    Частота кадров : 23, 976 (24000/1001) кадра/сек
    Цветовое пространство : YUV
    Субдискретизация насыщенности : 4: 2: 0
    Битовая глубина : 8 бит
    Тип развёртки : Прогрессивная
    Метод сжатия : С потерями
    Бит/(Пиксели*Кадры) : 0.303
    Размер потока : 1, 10 Гбайт (80%)
    Библиотека кодирования : XviD 1.2.1 (UTC 2008-12-04)
    Аудио
    Идентификатор : 1
    Формат : AC-3
    Формат/Информация : Audio Coding 3
    Коммерческое название : Dolby Digital
    Идентификатор кодека : 2000
    Продолжительность : 1 ч. 38 м.
    Вид битрейта : Постоянный
    Битрейт : 384 Кбит/сек
    Каналы : 2 канала
    Channel layout : L R
    Частота : 48, 0 КГц
    Частота кадров : 31, 250 кадров/сек (1536 SPF)
    Битовая глубина : 16 бит
    Метод сжатия : С потерями
    Размер потока : 271 Мбайт (19%)
    Выравнивание : Разделение по промежуткам
    Продолжительность промежутка : 42 мс. (1, 00 видеокадр)
    Время предзагрузки промежутка : 500 мс.
    Service kind : Complete Main

    Скриншоты для ознакомления



    Все одноименные релизы в Клубе
    Время раздачи: 24/7 (круглосуточно) (до появления первых 3-5 скачавших)


    Взаперти/Michael Inside (2017) WEB-DLRip [MVO] [AD]
    Рейтинг →
     (голосов: 1, оценка 5/5, голосовать можно 1 раз )

    Другие торренты по теме:

  • Тюряга / Взаперти / Lock Up (1989) BDRip [H.264 / 720p-LQ] [Hi10P]
  • Тюряга / Взаперти / Lock Up (1989) BDRip [H.264 / 720p-LQ] [Hi10P]
  • Взаперти / Shut In (2016) BDRip [H.264 / 720p] [EN]
  • Взаперти / Shut In (2016) BDRip [H.264 / 1080p] [EN]
  • Взаперти / Shut In (2016) HDRip
  • Взаперти / Shut In (2016) BDRemux [H.264 / 1080p] [EN / EN, Sp Sub]
  • Взаперти / Shut In (2016) BDRip [H.264 / 720p]
  • Взаперти / Shut In (2016) BDRip [H.264 / 1080p]


    • Комментарии (0):

      Информация

      Информация

        Посетители, находящиеся в группе Гости, не могут оставлять комментарии в данной новости.

        ↓ Меню




        ↓ Опрос

        Вы добавили сайт в закладки?
        Да
        Нет


        Top 10 за месяц (Другое)