.
Авторизация | Регистрация
Хочешь лучшие торренты? Добавь свой email!
Добавить

Торрент скачать бесплатно

  • support: webmaster@btracker.club
» » Фанатик / FANatic (2017) WEBRip [H.264 / 720p-LQ] [MVO] [AD] торрент скачать бесплатно


    Фанатик / FANatic (2017) WEBRip [H.264 / 720p-LQ] [MVO] [AD] торрент скачать бесплатно

    Опубликовал: fregat | Дата: 18-10-2018, 05:00 | .torrent скачали: 1

    Фанатик / FANatic (2017) WEBRip [H.264 / 720p-LQ] [MVO] [AD]Производство: Канада, Incendo Productions, Montreal Casting
    Жанр: Триллер
    Режиссер: Жан-Франсуа Ривар

    Актеры
    Бетси Брандт, Бенжамин Артур, Кэти Лэйвери Бриер, Элисон Лодер, Стефани Драммонд, Джейк Эпстин, Натали Мейер, Оливье Ламарш, Ричард Саттон, Дженнифер Миллер

    Описание

    Тесс — ведущая актриса на канале SYFY. Она жаждет избавиться от сексистской и стереотипной роли, давшей ей известность, но никто не может поверить, что она оставит эту роль. Предполагая, что её мужчина лжёт ей, Тесс обращается за поддержкой к своему доверенному помощнику.

    Возраст: 18+ (зрителям, достигшим 18 лет. запрещено для детей)
    Дата мировой премьеры: 19 февраля 2017
    Продолжительность: 01: 30: 36
    Качество видео: WEBRip
    Перевод: Многоголосый закадровый, профессиональный (официальный звук)
    Субтитры: Отсутствуют
    Реклама: Присутствует текстовая реклама
    Видео: AVC/H.264, 1280x720 (16: 9), 23.976 fps, 4 847 Kbps (0.219 bit/pixel)
    Аудио: AC-3, 48.0 KHz, 2 ch, 384 Kbps, CBR | русский, многоголосый закадровый

    Общее
    Уникальный идентификатор : 172479258772395578031202066241239452262 (0x81C24C03500A58ACA5A7418C77890A66)
    Полное имя : C: UsersUserDownloadsFANatic.2O17.Pof.WEB-DL.72Op.mkv
    Формат : Matroska
    Версия формата : Version 2
    Размер файла : 3, 38 Гбайт
    Продолжительность : 1 ч. 30 м.
    Режим общего битрейта : Переменный
    Общий поток : 5337 Кбит/сек
    Дата кодирования : UTC 2018-10-17 05: 27: 21
    Программа кодирования : mkvmerge v8.3.0 ('Over the Horizon') 64bit
    Библиотека кодирования : libebml v1.3.1 + libmatroska v1.4.2
    Видео
    Идентификатор : 1
    Формат : AVC
    Формат/Информация : Advanced Video Codec
    Профиль формата : High@L4.1
    Настройки формата : CABAC/4 Ref Frames
    Параметр CABAC формата : Да
    Параметр RefFrames формата : 4 кадра
    Идентификатор кодека : V_MPEG4/ISO/AVC
    Продолжительность : 1 ч. 30 м.
    Вид битрейта : Переменный
    Битрейт : 4952 Кбит/сек
    Максимальный битрейт : 5500 Кбит/сек
    Ширина : 1280 пикселей
    Высота : 720 пикселей
    Соотношение сторон : 16: 9
    Режим частоты кадров : Постоянный
    Частота кадров : 23, 976 (24000/1001) кадра/сек
    Стандарт вещания : Component
    Цветовое пространство : YUV
    Субдискретизация насыщенности : 4: 2: 0
    Битовая глубина : 8 бит
    Тип развёртки : Прогрессивная
    Бит/(Пиксели*Кадры) : 0.224
    Размер потока : 3, 13 Гбайт (93%)
    Default : Да
    Forced : Нет
    Цветовой диапазон : Limited
    Основные цвета : BT.709
    Характеристики трансфера : BT.709
    Коэффициенты матрицы : BT.709
    Аудио
    Идентификатор : 2
    Формат : AC-3
    Формат/Информация : Audio Coding 3
    Коммерческое название : Dolby Digital
    Идентификатор кодека : A_AC3
    Продолжительность : 1 ч. 30 м.
    Вид битрейта : Постоянный
    Битрейт : 384 Кбит/сек
    Каналы : 2 канала
    Channel layout : L R
    Частота : 48, 0 КГц
    Частота кадров : 31, 250 кадров/сек (1536 SPF)
    Битовая глубина : 16 бит
    Метод сжатия : С потерями
    Размер потока : 249 Мбайт (7%)
    ServiceKind/String : Complete Main
    Default : Да
    Forced : Нет

    Скриншоты для ознакомления



    Все одноименные релизы в Клубе
    Время раздачи: 24/7 (до появления первых 3-5 скачавших)


    Фанатик/FANatic (2017) WEBRip [H.264/720p-LQ] [MVO] [AD]
    Рейтинг →
     (голосов: 1, оценка 4/5, голосовать можно 1 раз )

    Другие торренты по теме:

  • Мой сын – фанатик / My Son the Fanatic (1997) DVDRip [H.264]


    • Комментарии (0):

      Информация

      Информация

        Посетители, находящиеся в группе Гости, не могут оставлять комментарии в данной новости.

        ↓ Меню




        ↓ Опрос

        Вы добавили сайт в закладки?
        Да
        Нет


        Top 10 за месяц (Другое)