.
Авторизация | Регистрация
Хочешь лучшие торренты? Добавь свой email!
Добавить

Торрент скачать бесплатно

  • support: webmaster@btracker.club
» » Небоскреб / Skyscraper (2018) BDRip 3D [H.264 / 1080p] [вертикальная анаморфная стереопара] [hand-made 16:9] торрент скачать бесплатно


    Небоскреб / Skyscraper (2018) BDRip 3D [H.264 / 1080p] [вертикальная анаморфная стереопара] [hand-made 16:9] торрент скачать бесплатно

    Опубликовал: fregat | Дата: 13-10-2018, 05:00 | .torrent скачали: 1

    Небоскреб / Skyscraper (2018) BDRip 3D [H.264 / 1080p] [вертикальная анаморфная стереопара] [hand-made 16:9]Производство: США/Legendary Entertainment, Flynn Picture Company
    Жанр: Боевик, Триллер
    Режиссер: Роусон Маршалл Тёрбер

    Актеры
    Дуэйн Джонсон, Нив Кэмпбелл, Пабло Шрайбер, Ноа Тейлор, Кевин Ранкин, Роланд Мёллер, Байрон Манн, Мэтт О`Лири, Адриан Холмс

    Описание

    Самый высокий и технологичный небоскрёб в мире становится центром огненной катастрофы. Только бывший агент ФБР, а теперь эксперт по безопасности Уилл Сойер может спасти вертикальный город под небесами. Когда нельзя доверять никому, а жизнь семьи в опасности, каждая секунда на счету.

    Возраст: 16+ (зрителям, достигшим 16 лет)
    Рейтинг MPAA: PG-13 (детям до 13 лет просмотр нежелателен)
    Дата мировой премьеры: 11 июля 2018
    Дата российской премьеры: 12 июля 2018, UPI
    Дата выхода DVD/Blu-ray релиза: 6 сентября 2018, Universal
    Продолжительность: 01: 42: 24
    Качество видео: BDRip 3D
    Перевод: Дублированный
    Субтитры: Русские (Forced, Full), Английские (Full)
    Видео: AVC/H.264, 1920x1080, ~10 Mbps
    Аудио #1: AC3, 6 ch, 384 Kbps - Русский (DUB, iTunes)
    Аудио #2: AC3, 6 ch, 448 Kbps - Английский

    Unique ID : 224743334395386240296273435818981057693 (0xA913FDE36AA1861D8921459436DBE49D)
    Complete name : D: TempD - Небоскреб FullScreen.mkv
    Format : Matroska
    Format version : Version 4/Version 2
    File size : 7.73 GiB
    Duration : 1h 42mn
    Overall bit rate : 10.8 Mbps
    Movie name : SCYSCRAPER_3D2D.Title0
    Encoded date : UTC 2018-10-10 23: 55: 47
    Writing application : mkvmerge v9.8.0 ('Kuglblids') 64bit
    Writing library : libebml v1.3.4 + libmatroska v1.4.5
    Video
    ID : 1
    Format : AVC
    Format/Info : Advanced Video Codec
    Format profile : High@L4.1
    Format settings, CABAC : Yes
    Format settings, ReFrames : 4 frames
    Codec ID : V_MPEG4/ISO/AVC
    Duration : 1h 42mn
    Bit rate : 10 000 Kbps
    Width : 1 920 pixels
    Height : 1 080 pixels
    Display aspect ratio : 16: 9
    Frame rate mode : Constant
    Frame rate : 23.976 fps
    Color space : YUV
    Chroma subsampling : 4: 2: 0
    Bit depth : 8 bits
    Scan type : Progressive
    Bits/(Pixel*Frame) : 0.201
    Stream size : 6.98 GiB (90%)
    Writing library : x264 core 155 r2901M 7d0ff22
    Encoding settings : cabac=1/ref=4/deblock=1: -3: -3/analyse=0x3: 0x113/me=umh/subme=9/psy=1/psy_rd=1.05: 0.10/mixed_ref=1/me_range=16/chroma_me=1/trellis=2/8x8dct=1/cqm=0/deadzone=21, 11/fast_pskip=0/chroma_qp_offset=-3/threads=5/lookahead_threads=1/sliced_threads=0/nr=0/decimate=1/interlaced=0/bluray_compat=0/constrained_intra=0/bframes=6/b_pyramid=2/b_adapt=2/b_bias=0/direct=1/weightb=1/open_gop=0/weightp=2/keyint=240/keyint_min=24/scenecut=40/intra_refresh=0/rc=2pass/mbtree=0/bitrate=10000/ratetol=1.0/qcomp=0.70/qpmin=3/qpmax=69/qpstep=4/cplxblur=20.0/qblur=0.5/ip_ratio=1.40/pb_ratio=1.30/aq=2: 1.00
    Default : Yes
    Forced : No
    Audio #1
    ID : 2
    Format : AC-3
    Format/Info : Audio Coding 3
    Mode extension : CM (complete main)
    Format settings, Endianness : Big
    Codec ID : A_AC3
    Duration : 1h 42mn
    Bit rate mode : Constant
    Bit rate : 384 Kbps
    Channel(s) : 6 channels
    Channel positions : Front: L C R, Side: L R, LFE
    Sampling rate : 48.0 KHz
    Bit depth : 16 bits
    Compression mode : Lossy
    Stream size : 281 MiB (4%)
    Language : Russian
    Default : Yes
    Forced : No
    Audio #2
    ID : 3
    Format : AC-3
    Format/Info : Audio Coding 3
    Mode extension : CM (complete main)
    Format settings, Endianness : Big
    Codec ID : A_AC3
    Duration : 1h 42mn
    Bit rate mode : Constant
    Bit rate : 448 Kbps
    Channel(s) : 6 channels
    Channel positions : Front: L C R, Side: L R, LFE
    Sampling rate : 48.0 KHz
    Bit depth : 16 bits
    Compression mode : Lossy
    Stream size : 328 MiB (4%)
    Language : English
    Default : No
    Forced : No
    Text #1
    ID : 4
    Format : UTF-8
    Codec ID : S_TEXT/UTF8
    Codec ID/Info : UTF-8 Plain Text
    Title : Форс.
    Language : Russian
    Default : Yes
    Forced : No
    Text #2
    ID : 5
    Format : UTF-8
    Codec ID : S_TEXT/UTF8
    Codec ID/Info : UTF-8 Plain Text
    Title : Полные
    Language : Russian
    Default : No
    Forced : No
    Text #3
    ID : 6
    Format : UTF-8
    Codec ID : S_TEXT/UTF8
    Codec ID/Info : UTF-8 Plain Text
    Title : Full
    Language : English
    Default : No
    Forced : No

    Скриншоты для ознакомления



    Все одноименные релизы в Клубе
    Время раздачи: 24/7 (до появления первых 3-5 скачавших)


    Небоскреб/Skyscraper (2018) BDRip 3D [H.264/1080p] [вертикальная анаморфная стереопара] [hand-made 16:9]
    Рейтинг →
     (голосов: 1, оценка 3/5, голосовать можно 1 раз )

    Другие торренты по теме:

  • Небоскреб / Skyscraper (2018) WEBRip [H.264 / 1080p-LQ] [EN / EN, KOR Sub]
  • Небоскреб / Skyscraper (2018) WEBRip [H.264 / 720p-LQ] [EN / KOR Sub]
  • Небоскреб / Skyscraper (2018) WEB-DL [H.264 / 720p-LQ]
  • Небоскреб / Skyscraper (2018) WEB-DL [1080p] ATV
  • Небоскреб / Skyscraper (2018) WEB-DLRip [H.264]
  • Небоскреб / Skyscraper (2018) WEB-DLRip [576p] iPad
  • Небоскреб / Skyscraper (2018) WEB-DL [720p] ATV
  • Небоскреб / Skyscraper (2018) WEB-DLRip [480p] iPod


    • Комментарии (0):

      Информация

      Информация

        Посетители, находящиеся в группе Гости, не могут оставлять комментарии в данной новости.

        ↓ Меню




        ↓ Опрос

        Вы добавили сайт в закладки?
        Да
        Нет


        Top 10 за месяц (Другое)