.
Авторизация | Регистрация
Хочешь лучшие торренты? Добавь свой email!
Добавить

Торрент скачать бесплатно

  • support: webmaster@btracker.club
» » Хан Соло: Звёздные войны. Истории / Solo: A Star Wars Story (2018) BDRip 3D [H.264 / 1080p] [Вертикальная анаморфная стереопара] [hand made 16:9] торрент скачать бесплатно


    Хан Соло: Звёздные войны. Истории / Solo: A Star Wars Story (2018) BDRip 3D [H.264 / 1080p] [Вертикальная анаморфная стереопара] [hand made 16:9] торрент скачать бесплатно

    Опубликовал: fregat | Дата: 27-09-2018, 05:00 | .torrent скачали: 2

    Хан Соло: Звёздные войны. Истории / Solo: A Star Wars Story (2018) BDRip 3D [H.264 / 1080p] [Вертикальная анаморфная стереопара] [hand made 16:9]Производство: США/Allison Shearmur Productions
    Жанр: фантастика, фэнтези, боевик, приключения
    Режиссер: Рон Ховард
    Продюсер: Уилл Аллегра, Роб Бредоу, Саймон Эмануэл

    Актеры
    Олден Эренрайк, Йонас Суотамо, Вуди Харрельсон, Эмилия Кларк, Дональд Гловер, Тэнди Ньютон, Фиби Уоллер-Бридж, Пол Беттани, Джон Фавро, Линда Хант

    Описание

    Фильм расскажет о похождениях юного космического сорвиголовы Хана Соло и его верного напарника Чубакки и о том, как они стали самыми быстрыми пилотами и самыми хитрыми контрабандистами далёкой Галактики.

    Возраст: 12+ (зрителям, достигшим 12 лет)
    Рейтинг MPAA: PG-13 (детям до 13 лет просмотр нежелателен)
    Премьера (мир): 10 мая 2018
    Премьера (РФ): 24 мая 2018, WDSSPR 3D

    Продолжительность: 02: 14: 46
    Качество: BDRip 3D
    Перевод: Дублированный (Лицензия EUR)
    Субтитры: Русские (full), английские (full)
    Видео: AVC/H.264, 1920х1080 ~10 Mbps
    Аудио #1: AC-3, 48.0 KHz, 6 ch, 640 Kbps - русский
    Аудио #2: AC-3, 48.0 KHz, 6 ch, 640 Kbps - английский
    В данном релизе, в отличие от исходника, картинка занимает всю площадь экрана 16: 9
    Unique ID : 192597128610105753093331806596900431226 (0x90E4DB937E4D87488A3080A90355A57A)
    Complete name : D: TempD - Хан Соло.mkv
    Format : Matroska
    Format version : Version 4/Version 2
    File size : 10.6 GiB
    Duration : 2h 14mn
    Overall bit rate : 11.3 Mbps
    Movie name : SOLO_A_STAR_WARS_STORY_3D.Title0
    Encoded date : UTC 2018-09-21 00: 22: 00
    Writing application : mkvmerge v9.8.0 ('Kuglblids') 64bit
    Writing library : Lavf57.71.100
    Video
    ID : 1
    Format : AVC
    Format/Info : Advanced Video Codec
    Format profile : High@L4.1
    Format settings, CABAC : Yes
    Format settings, ReFrames : 4 frames
    Codec ID : V_MPEG4/ISO/AVC
    Duration : 2h 14mn
    Bit rate : 10 000 Kbps
    Width : 1 920 pixels
    Height : 1 080 pixels
    Display aspect ratio : 16: 9
    Frame rate mode : Constant
    Frame rate : 23.976 fps
    Color space : YUV
    Chroma subsampling : 4: 2: 0
    Bit depth : 8 bits
    Scan type : Progressive
    Bits/(Pixel*Frame) : 0.201
    Stream size : 9.20 GiB (87%)
    Writing library : x264 core 155 r2901M 7d0ff22
    Encoding settings : cabac=1/ref=4/deblock=1: -3: -3/analyse=0x3: 0x113/me=umh/subme=10/psy=1/psy_rd=1.05: 0.10/mixed_ref=1/me_range=24/chroma_me=1/trellis=2/8x8dct=1/cqm=0/deadzone=21, 11/fast_pskip=0/chroma_qp_offset=-3/threads=5/lookahead_threads=1/sliced_threads=0/nr=0/decimate=1/interlaced=0/bluray_compat=0/constrained_intra=0/bframes=6/b_pyramid=2/b_adapt=2/b_bias=0/direct=1/weightb=1/open_gop=0/weightp=2/keyint=240/keyint_min=24/scenecut=40/intra_refresh=0/rc=2pass/mbtree=0/bitrate=10000/ratetol=1.0/qcomp=0.70/qpmin=3/qpmax=69/qpstep=4/cplxblur=20.0/qblur=0.5/ip_ratio=1.40/pb_ratio=1.30/aq=2: 1.00
    Default : Yes
    Forced : No
    Audio #1
    ID : 2
    Format : AC-3
    Format/Info : Audio Coding 3
    Mode extension : CM (complete main)
    Format settings, Endianness : Big
    Codec ID : A_AC3
    Duration : 2h 14mn
    Bit rate mode : Constant
    Bit rate : 640 Kbps
    Channel(s) : 6 channels
    Channel positions : Front: L C R, Side: L R, LFE
    Sampling rate : 48.0 KHz
    Bit depth : 16 bits
    Compression mode : Lossy
    Stream size : 617 MiB (6%)
    Language : Russian
    Default : Yes
    Forced : No
    Audio #2
    ID : 3
    Format : AC-3
    Format/Info : Audio Coding 3
    Mode extension : CM (complete main)
    Format settings, Endianness : Big
    Codec ID : A_AC3
    Duration : 2h 14mn
    Bit rate mode : Constant
    Bit rate : 640 Kbps
    Channel(s) : 6 channels
    Channel positions : Front: L C R, Side: L R, LFE
    Sampling rate : 48.0 KHz
    Bit depth : 16 bits
    Compression mode : Lossy
    Stream size : 617 MiB (6%)
    Language : English
    Default : No
    Forced : No
    Text #1
    ID : 4
    Format : UTF-8
    Codec ID : S_TEXT/UTF8
    Codec ID/Info : UTF-8 Plain Text
    Language : Russian
    Default : Yes
    Forced : No
    Text #2
    ID : 5
    Format : UTF-8
    Codec ID : S_TEXT/UTF8
    Codec ID/Info : UTF-8 Plain Text
    Language : English
    Default : No
    Forced : No

    Скриншоты для ознакомления



    Релизы фильма Хан Соло: Звёздные войны. Истории/Solo: A Star Wars Story на NNM Club
    Время раздачи: до первых 5-ти скачавших


    Хан Соло: Звёздные войны. Истории/Solo: A Star Wars Story (2018) BDRip 3D [H.264/1080p] [Вертикальная анаморфная стереопара] [hand made 16:9]
    Рейтинг →
     (голосов: 1, оценка 3/5, голосовать можно 1 раз )

    Другие торренты по теме:

  • Хан Соло: Звёздные Войны. Истории / Solo: A Star Wars Story (2018) TS [AD]
  • Хан Соло: Звёздные Войны. Истории / Solo: A Star Wars Story (2018) BDRip [H.264 / 1080p-LQ] [Line, AD]
  • Хан Соло: Звёздные Войны. Истории / Solo: A Star Wars Story (2018) HDRip [Line, AD]
  • Хан Соло: Звёздные войны. Истории / Solo: A Star Wars Story (2018) BDRip [H.264 / 720p] [EN / EN Sub]
  • Хан Соло: Звёздные войны. Истории / Solo: A Star Wars Story (2018) BDRip [H.264 / 1080p] [EN / EN Sub]
  • Хан Соло: Звёздные войны. Истории / Solo: A Star Wars Story (2018) HDRip [H.264]
  • Хан Соло: Звёздные войны. Истории / Solo: A Star Wars Story (2018) HDRip [H.264]
  • Хан Соло: Звёздные Войны. Истории / Solo: A Star Wars Story (2018) BDRemux [H.264 / 1080p]


    • Комментарии (0):

      Информация

      Информация

        Посетители, находящиеся в группе Гости, не могут оставлять комментарии в данной новости.

        ↓ Меню




        ↓ Опрос

        Вы добавили сайт в закладки?
        Да
        Нет


        Top 10 за месяц (Другое)