.
Авторизация | Регистрация
Хочешь лучшие торренты? Добавь свой email!
Добавить

Торрент скачать бесплатно

  • support: webmaster@btracker.club
» » Winger - Live (2007) от ALEXnROCK WEBRip [H.264 / 1080p-LQ] торрент скачать бесплатно


    Winger - Live (2007) от ALEXnROCK WEBRip [H.264 / 1080p-LQ] торрент скачать бесплатно

    Опубликовал: fregat | Дата: 24-09-2018, 05:00 | .torrent скачали: 2

    Winger - Live (2007) от ALEXnROCK WEBRip [H.264 / 1080p-LQ]Жанр: Rock
    Год выпуска: 2007

    Описание

    Мощный концерт, исполнено здоровски! Любителям крутого хард рока рекомендую. Рип делал с фирменного двд, ничего не вырезал. Звук поставил с CD. Да пребудет с нами качественная музыка!. Все лучшее для вас. ALEXnROCK
    Продолжительность: 05: 24: 03
    Качество: WEBRip
    Видео : AVC/H.264, 1920x1080 (16x9) 5500 kbps
    Аудио 1 : PCM 2.0, 48 KHz, 1536 kbps
    Аудио 2 : Dolby AC3 48Hz 192Kbps
    Аудио 3 : Mp3 320Kbps 48Hz
    Треклист:
    01 Blind Revolution Mad
    02 Loosen Up
    03 Easy Come Easy Go
    04 Your Great Escape
    05 Down Incognito
    06 Rainbow in the Rose
    07 Generica
    08 Junk Yard Dog
    09 Right Up Ahead
    10 Reb's Guitar Solo
    11 You Are the Saint, I Am the Sinner
    12 Rod's Drum Solo
    13 Headed for a Heartbreak
    14 Can't Get Enough
    15 Seventeen
    16 Who's the One
    17 Miles Away
    18 Hungry
    19 Madalaine

    Общее
    Уникальный идентификатор : 250056963533031793689847457767916324375 (0xBC1F3829C07357AAAA6FD161FB904617)
    Полное имя : Winger - Live 2007 ALEXnROCK.mkv
    Формат : Matroska
    Версия формата : Version 4/Version 2
    Размер файла : 5, 10 Гбайт
    Продолжительность : 1 ч. 36 м.
    Общий поток : 7551 Кбит/сек
    Дата кодирования : UTC 2018-09-19 13: 09: 20
    Программа кодирования : mkvmerge v9.8.0 ('Kuglblids') 64bit
    Библиотека кодирования : libebml v1.3.4 + libmatroska v1.4.5
    Видео
    Идентификатор : 1
    Формат : AVC
    Формат/Информация : Advanced Video Codec
    Профиль формата : High@L4
    Настройки формата : CABAC/4 Ref Frames
    Параметр CABAC формата : Да
    Параметр RefFrames формата : 4 кадра
    Идентификатор кодека : V_MPEG4/ISO/AVC
    Продолжительность : 1 ч. 36 м.
    Битрейт : 5500 Кбит/сек
    Ширина : 1920 пикселей
    Высота : 1080 пикселей
    Соотношение сторон : 16: 9
    Режим частоты кадров : Постоянный
    Частота кадров : 30, 000 кадров/сек
    Цветовое пространство : YUV
    Субдискретизация насыщенности : 4: 2: 0
    Битовая глубина : 8 бит
    Тип развёртки : Прогрессивная
    Бит/(Пиксели*Кадры) : 0.088
    Размер потока : 3, 71 Гбайт (73%)
    Библиотека кодирования : x264 core 146 r2538 121396c
    Настройки программы : cabac=1/ref=4/deblock=1: -1: -1/analyse=0x3: 0x113/me=umh/subme=7/psy=1/psy_rd=1.00: 0.20/mixed_ref=1/me_range=16/chroma_me=1/trellis=2/8x8dct=1/cqm=0/deadzone=21, 11/fast_pskip=0/chroma_qp_offset=-3/threads=12/lookahead_threads=2/sliced_threads=0/nr=0/decimate=0/interlaced=0/bluray_compat=0/constrained_intra=0/bframes=3/b_pyramid=2/b_adapt=2/b_bias=0/direct=3/weightb=1/open_gop=0/weightp=2/keyint=250/keyint_min=25/scenecut=40/intra_refresh=0/rc_lookahead=50/rc=2pass/mbtree=1/bitrate=5500/ratetol=1.0/qcomp=0.60/qpmin=0/qpmax=69/qpstep=4/cplxblur=20.0/qblur=0.5/vbv_maxrate=50000/vbv_bufsize=62500/nal_hrd=none/filler=0/ip_ratio=1.40/aq=1: 1.00
    Default : Да
    Forced : Нет
    Аудио #1
    Идентификатор : 2
    Формат : PCM
    Идентификатор кодека : A_PCM/INT/LIT
    Продолжительность : 1 ч. 36 м.
    Вид битрейта : Постоянный
    Битрейт : 1536 Кбит/сек
    Каналы : 2 канала
    Частота : 48, 0 КГц
    Частота кадров : 32, 000 кадра/сек (1500 SPF)
    Битовая глубина : 16 бит
    Размер потока : 1, 04 Гбайт (20%)
    Default : Да
    Forced : Нет
    Аудио #2
    Идентификатор : 3
    Формат : AC-3
    Формат/Информация : Audio Coding 3
    Параметр Endianness формата : Big
    Идентификатор кодека : A_AC3
    Продолжительность : 1 ч. 36 м.
    Вид битрейта : Постоянный
    Битрейт : 192 Кбит/сек
    Каналы : 2 канала
    Расположение каналов : Front: L R
    Частота : 48, 0 КГц
    Частота кадров : 31, 250 кадров/сек (1536 SPF)
    Битовая глубина : 16 бит
    Метод сжатия : С потерями
    Размер потока : 133 Мбайт (3%)
    ServiceKind/String : Complete Main
    Default : Нет
    Forced : Нет
    Аудио #3
    Идентификатор : 4
    Формат : MPEG Audio
    Версия формата : Version 1
    Профиль формата : Layer 3
    Идентификатор кодека : A_MPEG/L3
    Идентификатор кодека/Подсказка : MP3
    Продолжительность : 1 ч. 36 м.
    Вид битрейта : Постоянный
    Битрейт : 320 Кбит/сек
    Каналы : 2 канала
    Частота : 48, 0 КГц
    Частота кадров : 41, 667 кадра/сек (1152 SPF)
    Метод сжатия : С потерями
    Размер потока : 221 Мбайт (4%)
    Библиотека кодирования : LAME3.99r
    Настройки программы : -m s -V 4 -q 2 -lowpass 20.5
    Default : Нет
    Forced : Нет

    Скриншоты для ознакомления



    Другие релизы от ALEXnROCK в Клубе
    Время раздачи: 24/7 (до появления первых 3-5 скачавших)


    Winger - Live (2007) от ALEXnROCK WEBRip [H.264/1080p-LQ]
    Рейтинг →
     (голосов: 1, оценка 4/5, голосовать можно 1 раз )

    Другие торренты по теме:



      Комментарии (0):

      Информация

      Информация

        Посетители, находящиеся в группе Гости, не могут оставлять комментарии в данной новости.

        ↓ Меню




        ↓ Опрос

        Вы добавили сайт в закладки?
        Да
        Нет


        Top 10 за месяц (Другое)