.
Авторизация | Регистрация
Хочешь лучшие торренты? Добавь свой email!
Добавить

Торрент скачать бесплатно

  • support: webmaster@btracker.club
» » Домашняя акула / House Shark (2018) WEB-DLRip [MVO] [AD] торрент скачать бесплатно


    Домашняя акула / House Shark (2018) WEB-DLRip [MVO] [AD] торрент скачать бесплатно

    Опубликовал: fregat | Дата: 17-09-2018, 05:00 | .torrent скачали: 0

    Домашняя акула / House Shark (2018) WEB-DLRip [MVO] [AD]Производство: США/Potato Eater Productions, SRS Cinema
    Жанр: Ужасы, фантастика, боевик, комедия, приключения
    Режиссер: Рон Бонк

    Актеры
    Трей Харисон, Майкл Мерчант, Вес Рейт, Натан Бонк, Мелиса Ламартина, Джеси Руссо, Саманта Варга

    Описание

    Фрэнк даже представить себе не мог, что ему предстоит столкнуться с новым невероятным видом вредителей - домашней акулой. Да, да, вы не ослышались, раньше это были тараканы, а теперь акулы. Этот зубатый монстр напал на нянечку сына Фрэнка и съел женщину. Когда наш герой хотел избавиться от дома и продать его, то акула напала и растерзала приглашенных на просмотр жилища клиентов. Получится ли у Фрэнка справиться с этим ненасытным чудовищем?

    Продолжительность: 01: 51: 41
    Качество видео: WEB-DLRip
    Перевод: Многоголосый закадровый, любительский (КОЛОБОК)
    Субтитры: Отсутствуют
    Реклама: Присутствуют вставки текстовой рекламы
    Видео: XviD, 720x384, ~1622 Kbps
    Аудио: AC-3, 2 ch, 192 Kbps

    Общее
    Полное имя : D: _CinemaДомашняя акулаHouse Shark 2018 WEB-DLRip.avi
    Формат : AVI
    Формат/Информация : Audio Video Interleave
    Профиль формата : OpenDML
    Размер файла : 1, 43 Гбайт
    Продолжительность : 1 ч. 51 м.
    Общий поток : 1827 Кбит/сек
    Видео
    Идентификатор : 0
    Формат : MPEG-4 Visual
    Профиль формата : Advanced Simple@L5
    Параметр BVOP формата : 2
    Параметр QPel формата : Нет
    Параметр GMC формата : Без точки перехода
    Параметр матрицы формата : Выборочная
    Идентификатор кодека : XVID
    Идентификатор кодека/Подсказка : XviD
    Продолжительность : 1 ч. 51 м.
    Битрейт : 1622 Кбит/сек
    Ширина : 720 пикселей
    Высота : 384 пикселя
    Соотношение сторон : 1, 85: 1
    Частота кадров : 23, 976 (24000/1001) кадра/сек
    Цветовое пространство : YUV
    Субдискретизация насыщенности : 4: 2: 0
    Битовая глубина : 8 бит
    Тип развёртки : Прогрессивная
    Метод сжатия : С потерями
    Бит/(Пиксели*Кадры) : 0.245
    Размер потока : 1, 27 Гбайт (89%)
    Библиотека кодирования : XviD 1.2.1 (UTC 2008-12-04)
    Аудио
    Идентификатор : 1
    Формат : AC-3
    Формат/Информация : Audio Coding 3
    Расширение режима : CM (complete main)
    Параметр Endianness формата : Big
    Идентификатор кодека : 2000
    Продолжительность : 1 ч. 51 м.
    Вид битрейта : Постоянный
    Битрейт : 192 Кбит/сек
    Каналы : 2 канала
    Расположение каналов : Front: L R
    Частота : 48, 0 КГц
    Частота кадров : 31, 250 кадров/сек (1536 spf)
    Метод сжатия : С потерями
    Размер потока : 153 Мбайт (11%)
    Выравнивание : Соединение по промежуткам
    Продолжительность промежутка : 32 мс. (0, 77 видеокадр)

    Скриншоты для ознакомления



    Все одноименные релизы в Клубе Время раздачи: 24/7 (до появления первых 3-5 скачавших)


    Домашняя акула/House Shark (2018) WEB-DLRip [MVO] [AD]
    Рейтинг →
     (голосов: 1, оценка 5/5, голосовать можно 1 раз )

    Другие торренты по теме:

  • Домашняя Фотостудия 7.15 RePack by KaktusTV [Ru]
  • Подшивка журналов | Домашняя лаборатория (2006-2015) [DJVU] скачать через торрент бесплатно
  • Елена Тихомирова | Домашняя работа по русскому языку. 2 класс (2013) [DJVU] скачать через торрент бесплатно
  • Домашняя Библиотека 1.2.1 [Ru] скачать через торрент бесплатно
  • Домашняя Фотостудия 8.15 RePack by KaktusTV [Ru] скачать через торрент бесплатно
  • Журнал | Домашняя энциклопедия здоровья №3 (57) (сентябрь 2015) [PDF] скачать через торрент бесплатно
  • Windows 7 Домашняя расширенная SP1 x64 JAWS15 для незрячих. 2015.12.5 [Ru] скачать через торрент бесплатно
  • Журнал | Домашняя энциклопедия здоровья №4 (58) (ноябрь 2015) [PDF] скачать через торрент бесплатно


    • Комментарии (0):

      Информация

      Информация

        Посетители, находящиеся в группе Гости, не могут оставлять комментарии в данной новости.

        ↓ Меню




        ↓ Опрос

        Вы добавили сайт в закладки?
        Да
        Нет


        Top 10 за месяц (Другое)