.
Авторизация | Регистрация
Хочешь лучшие торренты? Добавь свой email!
Добавить

Торрент скачать бесплатно

  • support: webmaster@btracker.club
» » Лазерная команда 2 / Lazer Team 2 (2017) HDRip [MVO] [AD] торрент скачать бесплатно


    Лазерная команда 2 / Lazer Team 2 (2017) HDRip [MVO] [AD] торрент скачать бесплатно

    Опубликовал: fregat | Дата: 17-09-2018, 05:00 | .torrent скачали: 1

    Лазерная команда 2 / Lazer Team 2 (2017) HDRip [MVO] [AD]Производство: США/Rooster Teeth Productions
    Жанр: Фантастика
    Режиссер: Дэниэл Фабело

    Актеры
    Николь Блум, Джуди Браннинг, Роберт Стивен Браун, Бёрни Бёрнс, Александрия ДеБерри, Коти Домм, Колтон Данн, Дрэйк Фоли, Гэвин Фри, Даниэль Джордано

    Описание

    После того, как член Лазерной команды Вуди пропадает в пространственно-временном континууме, вся группа снова собирается вместе и отрпавляется на его поиски по бескрайней галактике.

    Продолжительность: 01: 24: 33
    Качество видео: HDRip
    Перевод: Многоголосый закадровый, любительский (Синема УС)
    Субтитры: Отсутствуют
    Реклама: Присутствуют вставки текстовой рекламы
    Видео: XviD, 720x304, ~1753 Kbps
    Аудио: AC-3, 2 ch, 448 Kbps

    Общее
    Полное имя : D: _CinemaЛазерная команда 2Lazer Team 2 2018 HDRip.avi
    Формат : AVI
    Формат/Информация : Audio Video Interleave
    Профиль формата : OpenDML
    Размер файла : 1, 31 Гбайт
    Продолжительность : 1 ч. 24 м.
    Общий поток : 2214 Кбит/сек
    Видео
    Идентификатор : 0
    Формат : MPEG-4 Visual
    Профиль формата : Advanced Simple@L5
    Параметр BVOP формата : 2
    Параметр QPel формата : Нет
    Параметр GMC формата : Без точки перехода
    Параметр матрицы формата : Default (H.263)
    Идентификатор кодека : XVID
    Идентификатор кодека/Подсказка : XviD
    Продолжительность : 1 ч. 24 м.
    Битрейт : 1753 Кбит/сек
    Ширина : 720 пикселей
    Высота : 304 пикселя
    Соотношение сторон : 2, 35: 1
    Частота кадров : 23, 976 (24000/1001) кадра/сек
    Цветовое пространство : YUV
    Субдискретизация насыщенности : 4: 2: 0
    Битовая глубина : 4 бит
    Тип развёртки : Прогрессивная
    Метод сжатия : С потерями
    Бит/(Пиксели*Кадры) : 0.334
    Размер потока : 1, 04 Гбайт (79%)
    Библиотека кодирования : XviD 1.2.1 (UTC 2008-12-04)
    Аудио
    Идентификатор : 1
    Формат : AC-3
    Формат/Информация : Audio Coding 3
    Расширение режима : CM (complete main)
    Параметр Endianness формата : Big
    Идентификатор кодека : 2000
    Продолжительность : 1 ч. 24 м.
    Вид битрейта : Постоянный
    Битрейт : 448 Кбит/сек
    Каналы : 2 канала
    Расположение каналов : Front: L R
    Частота : 48, 0 КГц
    Частота кадров : 31, 250 кадров/сек (1536 spf)
    Метод сжатия : С потерями
    Размер потока : 271 Мбайт (20%)
    Выравнивание : Соединение по промежуткам
    Продолжительность промежутка : 32 мс. (0, 77 видеокадр)

    Скриншоты для ознакомления



    Все одноименные релизы в Клубе Время раздачи: 24/7 (до появления первых 3-5 скачавших)


    Лазерная команда 2/Lazer Team 2 (2017) HDRip [MVO] [AD]
    Рейтинг →
     (голосов: 1, оценка 4/5, голосовать можно 1 раз )

    Другие торренты по теме:

  • Лазерная команда / Lazer Team (2015) WEB-DL [H.264 / 1080p-LQ]
  • Лазерная команда / Lazer Team (2015) WEB-DLRip
  • Лазерная команда / Lazer Team (2015) WEB-DL [H.264 / 720p-LQ]


    • Комментарии (0):

      Информация

      Информация

        Посетители, находящиеся в группе Гости, не могут оставлять комментарии в данной новости.

        ↓ Меню




        ↓ Опрос

        Вы добавили сайт в закладки?
        Да
        Нет


        Top 10 за месяц (Другое)