.
Авторизация | Регистрация
Хочешь лучшие торренты? Добавь свой email!
Добавить

Торрент скачать бесплатно

  • support: webmaster@btracker.club
» » Ловушка времени / Time Trap (2017) BDRip [H.264 / 720p-LQ] [MVO] [AD] торрент скачать бесплатно


    Ловушка времени / Time Trap (2017) BDRip [H.264 / 720p-LQ] [MVO] [AD] торрент скачать бесплатно

    Опубликовал: fregat | Дата: 6-09-2018, 05:00 | .torrent скачали: 1

    Ловушка времени / Time Trap (2017) BDRip [H.264 / 720p-LQ] [MVO] [AD]Производство: США/Pad Thai Pictures, Filmsmith Production Management, Rising Phoenix
    Жанр: Фантастика, боевик, приключения
    Режиссер: Марк Деннис, Бен Фостер

    Актеры
    Эндрю Уилсон, Кэссиди Гиффорд, Брианна Хоуи, Рейли МакКлендон, Оливия Драгусевич, Макс Райт, Ганс Марреро, Рич Скидмор, Крис Старджон, Гопал Бидари

    Описание

    Группа студентов отправляются в пещеры Техаса, чтобы найти своего любимого преподавателя по археологии, пропавшего без вести некоторое время назад. Ребята уверены, что он нуждается в помощи, а раз спасатели не смогут оперативно выполнить эту работу, то у них не остается выбора. Студенты готовы рисковать собственными жизнями ради спасения своего преподавателя. Кроме того, их интересует его необычная теория, которая гласит, что в этих местах может находиться истинный источник молодости.

    Продолжительность: 01: 27: 14
    Качество видео: BDRip
    Перевод: Многоголосый закадровый, любительский (Синема УС)
    Субтитры: Отсутствуют
    Реклама: Присутствуют вставки текстовой рекламы
    Видео: H.264/AVC, 1280x544, ~6779 Kbps
    Аудио: AC-3, 2 ch, 448 Kbps

    Общее
    Полное имя : E: NNMЛовушка времениTime Trap 2017 BDRip 720p-LQ.mkv
    Формат : Matroska
    Версия формата : Version 2
    Размер файла : 4, 49 Гбайт
    Продолжительность : 1 ч. 27 м.
    Режим общего битрейта : Переменный
    Общий поток : 7374 Кбит/сек
    Программа кодирования : libmatroska 1.4.1
    Видео
    Идентификатор : 1
    Формат : AVC
    Формат/Информация : Advanced Video Codec
    Профиль формата : High@L4.1
    Настройки формата : CABAC/4 Ref Frames
    Параметр CABAC формата : Да
    Параметр RefFrames формата : 4 кадра
    Идентификатор кодека : V_MPEG4/ISO/AVC
    Продолжительность : 1 ч. 27 м.
    Вид битрейта : Переменный
    Битрейт : 6779 Кбит/сек
    Максимальный битрейт : 7500 Кбит/сек
    Ширина : 1280 пикселей
    Высота : 544 пикселя
    Соотношение сторон : 2, 35: 1
    Режим частоты кадров : Постоянный
    Частота кадров : 23, 976 (24000/1001) кадра/сек
    Стандарт вещания : Component
    Цветовое пространство : YUV
    Субдискретизация насыщенности : 4: 2: 0
    Битовая глубина : 8 бит
    Тип развёртки : Прогрессивная
    Бит/(Пиксели*Кадры) : 0.406
    Размер потока : 4, 13 Гбайт (92%)
    Default : Нет
    Forced : Нет
    Цветовой диапазон : Limited
    Основные цвета : BT.709
    Характеристики трансфера : BT.709
    Коэффициенты матрицы : BT.709
    Аудио
    Идентификатор : 2
    Формат : AC-3
    Формат/Информация : Audio Coding 3
    Идентификатор кодека : A_AC3
    Продолжительность : 1 ч. 27 м.
    Вид битрейта : Постоянный
    Битрейт : 448 Кбит/сек
    Каналы : 2 канала
    Расположение каналов : Front: L R
    Частота : 48, 0 КГц
    Частота кадров : 31, 250 кадров/сек (1536 SPF)
    Битовая глубина : 16 бит
    Метод сжатия : С потерями
    Размер потока : 280 Мбайт (6%)
    ServiceKind/String : Complete Main
    Default : Нет
    Forced : Нет

    Скриншоты для ознакомления



    Все одноименные релизы в Клубе Время раздачи: 24/7 (до появления первых 3-5 скачавших)


    Ловушка времени/Time Trap (2017) BDRip [H.264/720p-LQ] [MVO] [AD]
    Рейтинг →
     (голосов: 1, оценка 3/5, голосовать можно 1 раз )

    Другие торренты по теме:

  • Ловушка времени / Time Trap (2017) BDRip [H.264 / 720p] [EN] [PR]
  • Ловушка времени / Time Trap (2017) BDRip [H.264 / 1080p]
  • Ловушка времени / Time Trap (2017) BDRip [H.264 / 720p] [MVO] [PR]
  • Ловушка времени / Time Trap (2017) HDRip [H.264] [MVO]
  • Ловушка времени / Time Trap (2017) BDRip [H.264 / 1080p] [MVO] [PR]
  • Ловушка времени / Time Trap (2017) BDRip [1080p] ATV (MVO)


    • Комментарии (0):

      Информация

      Информация

        Посетители, находящиеся в группе Гости, не могут оставлять комментарии в данной новости.

        ↓ Меню




        ↓ Опрос

        Вы добавили сайт в закладки?
        Да
        Нет


        Top 10 за месяц (Другое)