.
Авторизация | Регистрация
Хочешь лучшие торренты? Добавь свой email!
Добавить

Торрент скачать бесплатно

  • support: webmaster@btracker.club
» » Жизнь в движении / Never Steady, Never Still (2017) WEB-DLRip [H.264 / 720р-LQ] [MVO] [AD] торрент скачать бесплатно

    Жизнь в движении / Never Steady, Never Still (2017) WEB-DLRip [H.264 / 720р-LQ] [MVO] [AD] торрент скачать бесплатно

    Опубликовал: fregat | Дата: 5-09-2018, 05:00 | .torrent скачали: 0

    Жизнь в движении / Never Steady, Never Still (2017) WEB-DLRip [H.264 / 720р-LQ] [MVO] [AD]Производство: Канада/Experimental Forest Films, Christie Street Creative
    Жанр: Драма
    Режиссер: Кэтлин Хепберн

    Актеры
    Ширли Хендерсон, Теодор Пеллерен, Мэри Гэлловэй, Николас Кэмпбелл, Джаред Абрахамсон, Уго Атего, Лорни Кардинал, Чилтон Крэйн, Беверли Эллиотт, Эрик Кинлисайд

    Описание

    Мать, страдающая острой формой болезни Паркинсона, пытается пережить утрату мужа и научиться жить самостоятельно в то время, как её единственный сын работает в тяжёлых условиях на нефтяных платформах Альберты и ищет свою идентичность.

    Дата мировой премьеры: 9 сентября 2017
    Продолжительность: 01: 50: 05
    Качество видео: WEB-DLRip
    Перевод: Многоголосый закадровый (Синема Ус)
    Субтитры: Отсутствуют
    Видео: AVC/H.264, 1280x536 (2.40: 1), ~5081 Kbps
    Аудио: AC3, 2 ch, 384 Kbps

    Общее
    Уникальный идентификатор : 198511484958086597159221632972697841594 (0x9557EBDB886935F3A233680018672FBA)
    Полное имя : /Users/Never.Steady.Never.Still.2017.P.WEB-DLRip.720p.mkv
    Формат : Matroska
    Версия формата : Version 2
    Размер файла : 4, 20 Гбайт
    Продолжительность : 1 ч. 50 м.
    Режим общего битрейта : Переменный
    Общий поток : 5467 Кбит/сек
    Дата кодирования : UTC 2018-09-03 15: 29: 52
    Программа кодирования : mkvmerge v8.3.0 ('Over the Horizon') 64bit
    Библиотека кодирования : libebml v1.3.1 + libmatroska v1.4.2
    Видео
    Идентификатор : 1
    Формат : AVC
    Формат/Информация : Advanced Video Codec
    Профиль формата : High@L4.1
    Настройки формата : CABAC/4 Ref Frames
    Параметр CABAC формата : Да
    Параметр ReFrames формата : 4 кадра
    Идентификатор кодека : V_MPEG4/ISO/AVC
    Продолжительность : 1 ч. 50 м.
    Вид битрейта : Переменный
    Битрейт : 5081 Кбит/сек
    Максимальный битрейт : 5500 Кбит/сек
    Ширина : 1280 пикселей
    Высота : 536 пикселей
    Соотношение сторон : 2, 40: 1
    Режим частоты кадров : Постоянный
    Частота кадров : 23, 976 (24000/1001) кадра/сек
    Стандарт вещания : Component
    Цветовое пространство : YUV
    Субдискретизация насыщенности : 4: 2: 0
    Битовая глубина : 8 бит
    Тип развёртки : Прогрессивная
    Бит/(Пиксели*Кадры) : 0.309
    Размер потока : 3, 91 Гбайт (93%)
    Default : Да
    Forced : Нет
    Цветовой диапазон : Limited
    Основные цвета : BT.709
    Характеристики трансфера : BT.709
    Коэффициенты матрицы : BT.709
    Аудио
    Идентификатор : 2
    Формат : AC-3
    Формат/Информация : Audio Coding 3
    Коммерческое название : Dolby Digital
    Идентификатор кодека : A_AC3
    Продолжительность : 1 ч. 50 м.
    Вид битрейта : Постоянный
    Битрейт : 384 Кбит/сек
    Каналы : 2 канала
    Channel layout : L R
    Частота : 48, 0 КГц
    Частота кадров : 31, 250 кадров/сек (1536 SPF)
    Битовая глубина : 16 бит
    Метод сжатия : С потерями
    Размер потока : 302 Мбайт (7%)
    Service kind : Complete Main
    Default : Да
    Forced : Нет

    Скриншоты для ознакомления



    Все одноименные релизы в Клубе
    Время раздачи: 24/7 (круглосуточно) (до появления первых 3-5 скачавших)

    Прямая ссылка скачивания через uTorrent


    Жизнь в движении/Never Steady, Never Still (2017) WEB-DLRip [H.264/720р-LQ] [MVO] [AD]
    Рейтинг →
     (голосов: 1, оценка 5/5, голосовать можно 1 раз )

    Другие торренты по теме:

  • Эрик Хагерман, Джон Рэйти | Зажги себя! Жизнь – в движении. Революционное знание о влиянии физической активности на мозг (2017) [FB2]


    • Комментарии (0):

      Информация

      Информация

        Посетители, находящиеся в группе Гости, не могут оставлять комментарии в данной новости.

        ↓ Меню




        ↓ Опрос

        Вы добавили сайт в закладки?
        Да
        Нет


        Top 10 за месяц (Другое)