.
Авторизация | Регистрация
Хочешь лучшие торренты? Добавь свой email!
Добавить

Торрент скачать бесплатно

  • support: webmaster@btracker.club
» » Спарринг / Sparring (2017) WEBRip [H.264 / 720р] [MVO] [AD] торрент скачать бесплатно

    Спарринг / Sparring (2017) WEBRip [H.264 / 720р] [MVO] [AD] торрент скачать бесплатно

    Опубликовал: fregat | Дата: 5-09-2018, 05:00 | .torrent скачали: 0

    Спарринг / Sparring (2017) WEBRip [H.264 / 720р] [MVO] [AD]Производство: Франция/Canal+ fr, Centre National de la Cinématographie (CNC), Cinémage 11, EuropaCorp
    Жанр: Драма, Спорт
    Режиссер: Самуэль Жуи

    Актеры
    Матьё Кассовиц, Оливия Мерилахти, Сулейман М'Бай, Билли Блэйн, Томи Леконте, Лье Салем, Али Лабиди, Давид Саракино, Йоланта Де Керсмакер, Малик Бин

    Описание

    Боксёр Стив Лэндри за всю свою карьеру проиграл больше боёв, чем выиграл. И прежде чем уйти на покой, он в последний раз решает принять участие в спарринге с чемпионом Тареком М'Бареком, надеясь, что его имя оставит след в истории бокса.

    Дата мировой премьеры: 5 августа 2017
    Дата российской премьеры: 8 ноября 2018, Пионер
    Продолжительность: 01: 37: 13
    Качество видео: WEBRip 720p
    Перевод: Многоголосый закадровый (Синема УС)
    Субтитры: Отсутствуют
    Реклама: Имеется реклама от спонсора показа
    Видео: AVC/H.264, 1280x536 (2.40: 1), ~5105 Kbps
    Аудио: AC3, 2 ch, 384 Kbps

    Общее
    Уникальный идентификатор : 250406924465281295413690654173908898439 (0xBC629E91B7771D28A0C6019A922F1287)
    Полное имя : /Users/Sparring.2018.WEB-DL.72Op.mkv
    Формат : Matroska
    Версия формата : Version 2
    Размер файла : 3, 73 Гбайт
    Продолжительность : 1 ч. 37 м.
    Режим общего битрейта : Переменный
    Общий поток : 5491 Кбит/сек
    Дата кодирования : UTC 2018-09-03 18: 00: 01
    Программа кодирования : mkvmerge v8.3.0 ('Over the Horizon') 64bit
    Библиотека кодирования : libebml v1.3.1 + libmatroska v1.4.2
    Видео
    Идентификатор : 1
    Формат : AVC
    Формат/Информация : Advanced Video Codec
    Профиль формата : High@L4.1
    Настройки формата : CABAC/4 Ref Frames
    Параметр CABAC формата : Да
    Параметр ReFrames формата : 4 кадра
    Идентификатор кодека : V_MPEG4/ISO/AVC
    Продолжительность : 1 ч. 37 м.
    Вид битрейта : Переменный
    Битрейт : 5105 Кбит/сек
    Максимальный битрейт : 5600 Кбит/сек
    Ширина : 1280 пикселей
    Высота : 536 пикселей
    Соотношение сторон : 2, 40: 1
    Режим частоты кадров : Постоянный
    Частота кадров : 23, 976 (24000/1001) кадра/сек
    Стандарт вещания : Component
    Цветовое пространство : YUV
    Субдискретизация насыщенности : 4: 2: 0
    Битовая глубина : 8 бит
    Тип развёртки : Прогрессивная
    Бит/(Пиксели*Кадры) : 0.310
    Размер потока : 3, 47 Гбайт (93%)
    Default : Да
    Forced : Нет
    Цветовой диапазон : Limited
    Основные цвета : BT.709
    Характеристики трансфера : BT.709
    Коэффициенты матрицы : BT.709
    Аудио
    Идентификатор : 2
    Формат : AC-3
    Формат/Информация : Audio Coding 3
    Коммерческое название : Dolby Digital
    Идентификатор кодека : A_AC3
    Продолжительность : 1 ч. 37 м.
    Вид битрейта : Постоянный
    Битрейт : 384 Кбит/сек
    Каналы : 2 канала
    Channel layout : L R
    Частота : 48, 0 КГц
    Частота кадров : 31, 250 кадров/сек (1536 SPF)
    Битовая глубина : 16 бит
    Метод сжатия : С потерями
    Размер потока : 267 Мбайт (7%)
    Service kind : Complete Main
    Default : Да
    Forced : Нет

    Скриншоты для ознакомления



    Все одноименные релизы в Клубе
    Время раздачи: 24/7 (круглосуточно) (до появления первых 3-5 скачавших)

    Прямая ссылка скачивания через uTorrent


    Спарринг/Sparring (2017) WEBRip [H.264/720р] [MVO] [AD]
    Рейтинг →
     (голосов: 1, оценка 5/5, голосовать можно 1 раз )

    Другие торренты по теме:



      Комментарии (0):

      Информация

      Информация

        Посетители, находящиеся в группе Гости, не могут оставлять комментарии в данной новости.

        ↓ Меню




        ↓ Опрос

        Вы добавили сайт в закладки?
        Да
        Нет


        Top 10 за месяц (Другое)