.
Авторизация | Регистрация
Хочешь лучшие торренты? Добавь свой email!
Добавить

Торрент скачать бесплатно

  • support: webmaster@btracker.club
» » Положитесь на Пита / Lean on Pete (2017) WEB-DLRip [H.264 / 1080р-LQ] [MVO] [AD] торрент скачать бесплатно


    Положитесь на Пита / Lean on Pete (2017) WEB-DLRip [H.264 / 1080р-LQ] [MVO] [AD] торрент скачать бесплатно

    Опубликовал: fregat | Дата: 4-09-2018, 05:00 | .torrent скачали: 1

    Положитесь на Пита / Lean on Pete (2017) WEB-DLRip [H.264 / 1080р-LQ] [MVO] [AD]Производство: Великобритания/BFI Film Fund, Bureau, The, Film4
    Жанр: Драма, Приключения
    Режиссер: Эндрю Хэй
    Продюсер: Эндрю Хэй, Уилли Влаутин

    Актеры
    Стив Бушеми, Клоэ Севиньи, Стив Зан, Томас Манн, Трэвис Фиммел, Айанна Беркшир, Фрэнк Галлегос, Роберт Дж. Олин, Джозеф Бертот, Джулия Прад’хомме

    Описание

    Одинокий подросток Чарли в компании украденной лошади отправляется на поиски своей последней родственницы - давно пропавшей тети. Его ждет опасное и печальное путешествие на пути к простой мечте о доме.

    Рейтинг MPAA: R (лицам до 17 лет обязательно присутствие взрослого)
    Дата мировой премьеры: 1 сентября 2017
    Продолжительность: 02: 01: 47
    Качество видео: WEB-DLRip 1080p
    Перевод: Многоголосый закадровый, любительский (GreenРай Studio)
    Субтитры: Отсутствуют
    Реклама: Присутствует реклама от спонсора показа
    Видео: AVC/H.264, 1920х1040 (1.85: 1), ~4581 Kbps
    Аудио: AAC, 2 ch, 192 Kbps

    Общее
    Уникальный идентификатор : 179604109162095827877370828882009218368 (0x871E7E42290F46E90C0739D0B8115D40)
    Полное имя : /Users/Lean.on.Pete.2017.WEB-DL.1080p.mkv
    Формат : Matroska
    Версия формата : Version 4
    Размер файла : 4, 06 Гбайт
    Продолжительность : 2 ч. 1 м.
    Общий поток : 4773 Кбит/сек
    Дата кодирования : UTC 2018-08-30 10: 05: 47
    Программа кодирования : mkvmerge v25.0.0 ('Prog Noir') 64-bit
    Библиотека кодирования : libebml v1.3.6 + libmatroska v1.4.9
    Видео
    Идентификатор : 1
    Формат : AVC
    Формат/Информация : Advanced Video Codec
    Профиль формата : High@L4
    Настройки формата : CABAC/1 Ref Frames
    Параметр CABAC формата : Да
    Параметр ReFrames формата : 1 кадр
    Параметр GOP формата : M=1, N=30
    Идентификатор кодека : V_MPEG4/ISO/AVC
    Продолжительность : 2 ч. 1 м.
    Битрейт : 4581 Кбит/сек
    Ширина : 1920 пикселей
    Высота : 1040 пикселей
    Соотношение сторон : 1, 85: 1
    Режим частоты кадров : Постоянный
    Частота кадров : 23, 976 (24000/1001) кадра/сек
    Цветовое пространство : YUV
    Субдискретизация насыщенности : 4: 2: 0
    Битовая глубина : 8 бит
    Тип развёртки : Прогрессивная
    Бит/(Пиксели*Кадры) : 0.096
    Размер потока : 3, 90 Гбайт (96%)
    Язык : English
    Default : Да
    Forced : Нет
    Аудио
    Идентификатор : 2
    Формат : AAC LC
    Формат/Информация : Advanced Audio Codec Low Complexity
    Идентификатор кодека : A_AAC-2
    Продолжительность : 2 ч. 1 м.
    Битрейт : 192 Кбит/сек
    Каналы : 2 канала
    Channel layout : L R
    Частота : 48, 0 КГц
    Частота кадров : 46, 875 кадров/сек (1024 SPF)
    Метод сжатия : С потерями
    Размер потока : 165 Мбайт (4%)
    Язык : English
    Default : Да
    Forced : Нет

    Скриншоты для ознакомления



    Все одноименные релизы в Клубе
    Время раздачи: 24/7 (круглосуточно) (до появления первых 3-5 скачавших)


    Положитесь на Пита/Lean on Pete (2017) WEB-DLRip [H.264/1080р-LQ] [MVO] [AD]
    Рейтинг →
     (голосов: 1, оценка 4/5, голосовать можно 1 раз )

    Другие торренты по теме:

  • Положитесь на Пита / Lean on Pete (2017) BDRemux [H.264 / 1080p] [EN / EN, Sp Sub]


    • Комментарии (0):

      Информация

      Информация

        Посетители, находящиеся в группе Гости, не могут оставлять комментарии в данной новости.

        ↓ Меню




        ↓ Опрос

        Вы добавили сайт в закладки?
        Да
        Нет


        Top 10 за месяц (Другое)