.
Авторизация | Регистрация
Хочешь лучшие торренты? Добавь свой email!
Добавить

Торрент скачать бесплатно

  • support: webmaster@btracker.club
» » Инопланетный код (Инопланетный шифр) / The Men (Alien Code) (2017) WEB-DLRip [H.264 / 1080р-LQ] [MVO] [AD] торрент скачать бесплатно


    Инопланетный код (Инопланетный шифр) / The Men (Alien Code) (2017) WEB-DLRip [H.264 / 1080р-LQ] [MVO] [AD] торрент скачать бесплатно

    Опубликовал: fregat | Дата: 4-09-2018, 05:00 | .torrent скачали: 2

    Инопланетный код (Инопланетный шифр) / The Men (Alien Code) (2017) WEB-DLRip [H.264 / 1080р-LQ] [MVO] [AD]Производство: США/The Men Productions
    Жанр: Фантастика, Триллер, Детектив
    Режиссер: Майкл Дж. Куни
    Продюсер: Джон П. Агирр, Khiow Hui Lim, Bianca Chen,

    Актеры
    Кайл Галлнер, Аарон Бер, Тейт Бёрчмор, Джошуа Лэнг, Мэри МакКормак, Бретт Ньютон, Ричард Шифф

    Описание

    Алекс засекает сообщения, передаваемые неизвестным спутником, и приступает к их расшифровке. Вскоре он выясняет, что в там было зашифровано сообщение о существовании инопланетных существ. Эта информация полностью меняет сознание Алекса, и тут за ним начинают охоту неизвестные.

    Дата мировой премьеры: 23 апреля 2017
    Продолжительность: 01: 42: 12
    Качество видео: WEB-DLRip 1080p
    Перевод: Многоголосый закадровый, любительский (GreenРай Studio)
    Субтитры: Отсутствуют
    Реклама: Присутствует реклама от спонсора показа
    Видео: AVC/H.264, 1920х800, ~4503 Kbps
    Аудио: AAC, 2 ch, 192 Kbps

    Общее
    Уникальный идентификатор : 115012690005332894153243552817757876573 (0x5686A36BFDFEBF476F718FC3A404F15D)
    Полное имя : /Users/Alien.Code.2017.WEB-DL.1080p.mkv
    Формат : Matroska
    Версия формата : Version 4
    Размер файла : 3, 35 Гбайт
    Продолжительность : 1 ч. 42 м.
    Общий поток : 4695 Кбит/сек
    Дата кодирования : UTC 2018-09-02 10: 12: 27
    Программа кодирования : mkvmerge v25.0.0 ('Prog Noir') 64-bit
    Библиотека кодирования : libebml v1.3.6 + libmatroska v1.4.9
    Видео
    Идентификатор : 1
    Формат : AVC
    Формат/Информация : Advanced Video Codec
    Профиль формата : High@L4
    Настройки формата : CABAC/1 Ref Frames
    Параметр CABAC формата : Да
    Параметр ReFrames формата : 1 кадр
    Параметр GOP формата : M=1, N=30
    Идентификатор кодека : V_MPEG4/ISO/AVC
    Продолжительность : 1 ч. 42 м.
    Битрейт : 4503 Кбит/сек
    Ширина : 1920 пикселей
    Высота : 800 пикселей
    Соотношение сторон : 2, 40: 1
    Режим частоты кадров : Постоянный
    Частота кадров : 23, 976 (24000/1001) кадра/сек
    Цветовое пространство : YUV
    Субдискретизация насыщенности : 4: 2: 0
    Битовая глубина : 8 бит
    Тип развёртки : Прогрессивная
    Бит/(Пиксели*Кадры) : 0.122
    Размер потока : 3, 21 Гбайт (96%)
    Язык : English
    Default : Да
    Forced : Нет
    Аудио
    Идентификатор : 2
    Формат : AAC LC
    Формат/Информация : Advanced Audio Codec Low Complexity
    Идентификатор кодека : A_AAC-2
    Продолжительность : 1 ч. 42 м.
    Битрейт : 192 Кбит/сек
    Каналы : 2 канала
    Channel layout : L R
    Частота : 48, 0 КГц
    Частота кадров : 46, 875 кадров/сек (1024 SPF)
    Метод сжатия : С потерями
    Размер потока : 139 Мбайт (4%)
    Язык : English
    Default : Да
    Forced : Нет

    Скриншоты для ознакомления



    Все одноименные релизы в Клубе
    Время раздачи: 24/7 (круглосуточно) (до появления первых 3-5 скачавших)


    Инопланетный код (Инопланетный шифр)/The Men (Alien Code) (2017) WEB-DLRip [H.264/1080р-LQ] [MVO] [AD]
    Рейтинг →
     (голосов: 1, оценка 4/5, голосовать можно 1 раз )

    Другие торренты по теме:

  • Инопланетный заговор / Conspiracy Encounters (2016) WEB-DLRip
  • Инопланетный хищник / Alien Predator (2018) WEB-DLRip [MVO] [AD]


    • Комментарии (0):

      Информация

      Информация

        Посетители, находящиеся в группе Гости, не могут оставлять комментарии в данной новости.

        ↓ Меню




        ↓ Опрос

        Вы добавили сайт в закладки?
        Да
        Нет


        Top 10 за месяц (Другое)