.
Авторизация | Регистрация
Хочешь лучшие торренты? Добавь свой email!
Добавить

Торрент скачать бесплатно

  • support: webmaster@btracker.club
» » Основано на реальных событиях / Dapres une histoire vraie (2017) WEB-DLRip [H.264 / 1080р-LQ] [MVO] [AD] торрент скачать бесплатно


    Основано на реальных событиях / Dapres une histoire vraie (2017) WEB-DLRip [H.264 / 1080р-LQ] [MVO] [AD] торрент скачать бесплатно

    Опубликовал: fregat | Дата: 4-09-2018, 05:00 | .torrent скачали: 0

    Основано на реальных событиях / Dapres une histoire vraie (2017) WEB-DLRip [H.264 / 1080р-LQ] [MVO] [AD]Производство: Франция, Польша, Бельгия/Belga Productions, Canal+/Cine/Cineventure 2
    Жанр: Триллер, Драма, Детектив
    Режиссер: Роман Полански
    Продюсер: Вассим Беджи, Глэдис Брукфилд-Хэмпсон, Фабрис Дельвиль, ..

    Актеры
    Эмманюэль Сенье, Ева Грин, Венсан Перес, Доминик Пинон, Камиль Шаму, Брижит Роюан, Жозе Дайан, Ноэми Львовски, Леонелло Брандолини, Элизабет Куин

    Описание

    Молодую писательницу одолевает депрессия, пришедшая в её жизнь с первым громким профессиональным успехом. В это время происходит встреча с почитательницей её таланта, загадочной L. Девушки сближаются: писательница получает необходимую ей поддержку, а L тем временем всё глубже проникает в жизнь своего кумира.

    Дата мировой премьеры: 27 мая 2017
    Продолжительность: 01: 36: 58
    Качество видео: WEB-DLRip 1080p
    Перевод: Многоголосый закадровый, любительский
    Субтитры: Отсутствуют
    Реклама: Присутствует реклама от спонсора показа
    Видео: AVC/H.264, 1920х800 (2.40: 1), ~4545 Kbps
    Аудио: AAC, 2 ch, 192 Kbps

    Общее
    Уникальный идентификатор : 93280078640478129269722961423159294159 (0x462D16F468194ABCDCC11A27AE6C78CF)
    Полное имя : /Users/D.après.une.histoire.vraie.2017.WEB-DL.1080p.mkv
    Формат : Matroska
    Версия формата : Version 4
    Размер файла : 3, 21 Гбайт
    Продолжительность : 1 ч. 36 м.
    Общий поток : 4737 Кбит/сек
    Дата кодирования : UTC 2018-09-03 06: 53: 28
    Программа кодирования : mkvmerge v25.0.0 ('Prog Noir') 64-bit
    Библиотека кодирования : libebml v1.3.6 + libmatroska v1.4.9
    Видео
    Идентификатор : 1
    Формат : AVC
    Формат/Информация : Advanced Video Codec
    Профиль формата : High@L4
    Настройки формата : CABAC/1 Ref Frames
    Параметр CABAC формата : Да
    Параметр ReFrames формата : 1 кадр
    Параметр GOP формата : M=1, N=30
    Идентификатор кодека : V_MPEG4/ISO/AVC
    Продолжительность : 1 ч. 36 м.
    Битрейт : 4545 Кбит/сек
    Ширина : 1920 пикселей
    Высота : 800 пикселей
    Соотношение сторон : 2, 40: 1
    Режим частоты кадров : Постоянный
    Частота кадров : 23, 976 (24000/1001) кадра/сек
    Цветовое пространство : YUV
    Субдискретизация насыщенности : 4: 2: 0
    Битовая глубина : 8 бит
    Тип развёртки : Прогрессивная
    Бит/(Пиксели*Кадры) : 0.123
    Размер потока : 3, 08 Гбайт (96%)
    Язык : English
    Default : Да
    Forced : Нет
    Аудио
    Идентификатор : 2
    Формат : AAC LC
    Формат/Информация : Advanced Audio Codec Low Complexity
    Идентификатор кодека : A_AAC-2
    Продолжительность : 1 ч. 36 м.
    Битрейт : 192 Кбит/сек
    Каналы : 2 канала
    Channel layout : L R
    Частота : 48, 0 КГц
    Частота кадров : 46, 875 кадров/сек (1024 SPF)
    Метод сжатия : С потерями
    Размер потока : 131 Мбайт (4%)
    Язык : English
    Default : Да
    Forced : Нет

    Скриншоты для ознакомления



    Все одноименные релизы в Клубе
    Время раздачи: 24/7 (круглосуточно) (до появления первых 3-5 скачавших)


    Основано на реальных событиях/Dapres une histoire vraie (2017) WEB-DLRip [H.264/1080р-LQ] [MVO] [AD]
    Рейтинг →
     (голосов: 1, оценка 3/5, голосовать можно 1 раз )

    Другие торренты по теме:

  • Основано на реальных событиях / Daprès une histoire vraie (2017) BDRip [720p] ATV
  • Основано на реальных событиях / Daprès une histoire vraie (2017) BDRip [1080p] ATV
  • Дельфина де Виган | Основано на реальных событиях (2018) [FB2]
  • Основано на реальных событиях / Dapres une histoire vraie (2017) BDRip [H.264 / 1080p]
  • Основано на реальных событиях / Daprès une histoire vraie (2017) BDRip


    • Комментарии (0):

      Информация

      Информация

        Посетители, находящиеся в группе Гости, не могут оставлять комментарии в данной новости.

        ↓ Меню




        ↓ Опрос

        Вы добавили сайт в закладки?
        Да
        Нет


        Top 10 за месяц (Другое)