.
Авторизация | Регистрация
Хочешь лучшие торренты? Добавь свой email!
Добавить

Торрент скачать бесплатно

  • support: webmaster@btracker.club
» » Дневник экзорциста / Diario de um Exorcista - Zero / Exorcist Diary - Zero (2016) WEB-DLRip [MVO] [AD] торрент скачать бесплатно


    Дневник экзорциста / Diario de um Exorcista - Zero / Exorcist Diary - Zero (2016) WEB-DLRip [MVO] [AD] торрент скачать бесплатно

    Опубликовал: fregat | Дата: 2-09-2018, 05:00 | .torrent скачали: 1

    Дневник экзорциста / Diario de um Exorcista - Zero / Exorcist Diary - Zero (2016) WEB-DLRip [MVO] [AD]Производство: Бразилия/Deus Ex Machine Cine Group, JR Studios, Perocini Filmes
    Жанр: ужасы, триллер
    Режиссер: Ренато Сикейра

    Актеры
    Ренато Сикейра, Фабио Томазини, Диего Андраде, Адриано Арбол, Присцилла Авелар, Челсо Батиста, Фабиу Кадор, Оливия Камарго, Пауло Контато, Элизабет де Хесус

    Описание

    Однажды трагедия затронула Лукаса и его семью, молодой парень встает перед сложной миссией борьбы Бога и Дьявола. Лукас один из опытных экзорцистов Латинской Америки, ему нужно будет столкнуться с этой силой тьмы.

    Дата мировой премьеры: 25 мая 2016
    Продолжительность: 01: 41: 02
    Качество видео: WEB-DLRip
    Перевод: многоголосый закадровый, любительский (Студия Колобок)
    Субтитры: отсутствуют
    Реклама: Присутствуют текстовые вставки рекламы
    Видео: Xvid, 720x400, ~1666 kbps
    Аудио: AC3, 2 ch, 192 kbps

    Код: выделить все
    Общее
    Полное имя : Diario de um Exorcista - Zero.2016.Pk.WEB-DLRip.avi
    Формат : AVI
    Формат/Информация : Audio Video Interleave
    Размер файла : 1, 32 Гбайт
    Продолжительность : 1 ч. 41 м.
    Общий поток : 1867 Кбит/сек
    Библиотека кодирования : VirtualDub build 35491/release
    Видео
    Идентификатор : 0
    Формат : MPEG-4 Visual
    Профиль формата : Advanced Simple@L5
    Настройки формата : BVOP2
    Параметр BVOP формата : 2
    Параметр QPel формата : Нет
    Параметр GMC формата : Без точки перехода
    Параметр матрицы формата : Default (H.263)
    Идентификатор кодека : XVID
    Идентификатор кодека/Подсказка : XviD
    Продолжительность : 1 ч. 41 м.
    Битрейт : 1666 Кбит/сек
    Ширина : 720 пикселей
    Высота : 400 пикселей
    Соотношение сторон : 16:9
    Частота кадров : 23, 976 (24000/1001) кадра/сек
    Цветовое пространство : YUV
    Субдискретизация насыщенности : 4:2:0
    Битовая глубина : 4 бит
    Тип развёртки : Прогрессивная
    Метод сжатия : С потерями
    Бит/(Пиксели*Кадры) : 0.241
    Размер потока : 1, 18 Гбайт (89%)
    Библиотека кодирования : XviD 1.2.1 (UTC 2008-12-04)
    Аудио
    Идентификатор : 1
    Формат : AC-3
    Формат/Информация : Audio Coding 3
    Идентификатор кодека : 2000
    Продолжительность : 1 ч. 41 м.
    Вид битрейта : Постоянный
    Битрейт : 192 Кбит/сек
    Каналы : 2 канала
    Расположение каналов : Front: L R
    Частота : 48, 0 КГц
    Частота кадров : 31, 250 кадров/сек (1536 SPF)
    Битовая глубина : 16 бит
    Метод сжатия : С потерями
    Размер потока : 139 Мбайт (10%)
    Выравнивание : Разделение по промежуткам
    Продолжительность промежутка : 42 мс. (1, 00 видеокадр)
    Время предзагрузки промежутка : 500 мс.
    ServiceKind/String : Complete Main


    Скриншоты для ознакомления



    Все одноименные релизы в Клубе
    Время раздачи: с 10: 00 до 22: 00 (до появления первых 3-5 скачавших)


    Дневник экзорциста/Diario de um Exorcista - Zero/Exorcist Diary - Zero (2016) WEB-DLRip [MVO] [AD]
    Рейтинг →
     (голосов: 1, оценка 3/5, голосовать можно 1 раз )

    Другие торренты по теме:

  • Худеем вместе. Дневник калорий v3.8.6 AD-Free [Ru] - многофункциональный дневник калорий скачать через торрент бесплатно
  • Худеем вместе. Дневник калорий v3.8.22 AD-Free [Ru] - многофункциональный дневник калорий
  • Дневник директора школы (1975) SATRip скачать через торрент бесплатно
  • Дневник наемного убийцы / Diary of a Hitman (1991) HDRip [AVO]
  • Дневник дальнобойщика / (Серия 1-8 из ) (2014) [MP4|1280x720] <WEB-DLRip H.264> (Обновляемая) скачать через торрент бесплатно
  • Дневник Бриджет Джонс / Bridget Joness Diary (2001) BDRip [1080p] скачать через торрент бесплатно
  • Дневник Бриджет Джонс / Bridget Joness Diary (2001) BDRemux [1080p] скачать через торрент бесплатно
  • Дневник мамы первоклассника (2014) WEBRip скачать через торрент бесплатно


    • Комментарии (0):

      Информация

      Информация

        Посетители, находящиеся в группе Гости, не могут оставлять комментарии в данной новости.

        ↓ Меню




        ↓ Опрос

        Вы добавили сайт в закладки?
        Да
        Нет


        Top 10 за месяц (Другое)