.
Авторизация | Регистрация
Хочешь лучшие торренты? Добавь свой email!
Добавить

Торрент скачать бесплатно

  • support: webmaster@btracker.club
» » Рег / Reg (2016) WEB-DLRip [H.264 / 1080p-LQ] [MVO] [AD] торрент скачать бесплатно


    Рег / Reg (2016) WEB-DLRip [H.264 / 1080p-LQ] [MVO] [AD] торрент скачать бесплатно

    Опубликовал: fregat | Дата: 1-09-2018, 05:01 | .torrent скачали: 0

    Рег / Reg (2016) WEB-DLRip [H.264 / 1080p-LQ] [MVO] [AD]Производство: Великобритания/LA Productions
    Жанр: Драма
    Режиссер: Дэвид Блэр
    Продюсер: Колин МакКиоун, Донна Моллой

    Актеры
    Тим Рот, Чарли Энсон, Уильям Эткинсон, Келва Барретт, Тим Бентинк, Кейт Брекен, Крис Брэйлсфорд, Ральф Браун, Майки Коллинз

    Описание

    История Реджа Кейс, который потерял сына на войне в Ираке, и решившего выступить против Тони Блэра на выборах 2005 года.

    Дата мировой премьеры: 6 июня 2016
    Продолжительность: 01: 30: 20
    Качество видео: WEB-DLRip
    Перевод: Любительский многоголосый (GreenРай Studio)
    Субтитры: Осутствуют
    Реклама: Присутствуют видео, аудио и текстовые вставки рекламы
    Видео: AVC/H.264, 1920x1080 (16: 9), 4795 kb/s, 25.000 fps
    Аудио: AC3, 2 ch, 384 kb/s - Русский

    Общее
    Уникальный идентификатор : 186220440383999586915501867664561859750 (0x8C18C092C06B59B881D2104EA222ECA6)
    Полное имя : /Users/NNMC/Reg.2016.WEB-DL.1080p.mkv
    Формат : Matroska
    Версия формата : Version 4/Version 2
    Размер файла : 3, 33 Гбайт
    Продолжительность : 1 ч. 30 м.
    Общий поток : 5285 Кбит/сек
    Дата кодирования : UTC 2018-08-30 08: 18: 26
    Программа кодирования : mkvmerge v6.5.0 ('Isn't she lovely') built on Oct 20 2013 12: 50: 05
    Библиотека кодирования : libebml v1.3.0 + libmatroska v1.4.1
    Видео
    Идентификатор : 1
    Формат : AVC
    Формат/Информация : Advanced Video Codec
    Профиль формата : High@L3.1
    Настройки формата : CABAC/4 Ref Frames
    Параметр CABAC формата : Да
    Параметр ReFrames формата : 4 кадра
    Идентификатор кодека : V_MPEG4/ISO/AVC
    Продолжительность : 1 ч. 30 м.
    Битрейт : 4795 Кбит/сек
    Ширина : 1920 пикселей
    Высота : 1080 пикселей
    Соотношение сторон : 16: 9
    Режим частоты кадров : Постоянный
    Частота кадров : 25, 000 кадров/сек
    Цветовое пространство : YUV
    Субдискретизация насыщенности : 4: 2: 0
    Битовая глубина : 8 бит
    Тип развёртки : Прогрессивная
    Бит/(Пиксели*Кадры) : 0.093
    Размер потока : 3, 03 Гбайт (91%)
    Библиотека кодирования : x264 core 146 r2538 121396c
    Настройки программы : cabac=1/ref=1/deblock=1: 0: 0/analyse=0x3: 0x113/me=hex/subme=2/psy=1/psy_rd=1.00: 0.00/mixed_ref=0/me_range=16/chroma_me=1/trellis=0/8x8dct=1/cqm=0/deadzone=21, 11/fast_pskip=1/chroma_qp_offset=0/threads=9/lookahead_threads=3/sliced_threads=0/nr=0/decimate=1/interlaced=0/bluray_compat=0/constrained_intra=0/bframes=3/b_pyramid=2/b_adapt=1/b_bias=0/direct=1/weightb=1/open_gop=0/weightp=1/keyint=250/keyint_min=25/scenecut=40/intra_refresh=0/rc_lookahead=10/rc=crf/mbtree=1/crf=17.0/qcomp=0.60/qpmin=0/qpmax=69/qpstep=4/ip_ratio=1.40/aq=1: 1.00
    Default : Да
    Forced : Нет
    Аудио
    Идентификатор : 2
    Формат : AC-3
    Формат/Информация : Audio Coding 3
    Идентификатор кодека : A_AC3
    Продолжительность : 1 ч. 30 м.
    Вид битрейта : Постоянный
    Битрейт : 384 Кбит/сек
    Каналы : 2 канала
    Расположение каналов : Front: L R
    Частота : 48, 0 КГц
    Частота кадров : 31, 250 кадров/сек (1536 SPF)
    Битовая глубина : 16 бит
    Метод сжатия : С потерями
    Размер потока : 248 Мбайт (7%)
    Service kind : Complete Main
    Default : Да
    Forced : Нет

    Скриншоты для ознакомления



    Все одноименные релизы в Клубе
    Время раздачи: 24/7 (круглосуточно) (до появления первых 3-5 скачавших)


    Рег/Reg (2016) WEB-DLRip [H.264/1080p-LQ] [MVO] [AD]
    Рейтинг →
     (голосов: 1, оценка 5/5, голосовать можно 1 раз )

    Другие торренты по теме:

  • В розыске / Сигнал всем постам / A.P.B. (2017) WEB-DLRip [H.264 / 720p-LQ] (сезон 1, серии 1-2 из 12) Jaskier (обновляемая)
  • Поездка за счастьем (2016) WEB-DLRip [H.264 / 720 / p-LQ] (серии 1-4 из 4)


    • Комментарии (0):

      Информация

      Информация

        Посетители, находящиеся в группе Гости, не могут оставлять комментарии в данной новости.

        ↓ Меню




        ↓ Опрос

        Вы добавили сайт в закладки?
        Да
        Нет


        Top 10 за месяц (Другое)