.
Авторизация | Регистрация
Хочешь лучшие торренты? Добавь свой email!
Добавить

Торрент скачать бесплатно

  • support: webmaster@btracker.club
» » Проклятый дар / The Wicked Gift (2017) WEB-DLRip [H.264 / 720р-LQ] [MVO, AD] торрент скачать бесплатно


    Проклятый дар / The Wicked Gift (2017) WEB-DLRip [H.264 / 720р-LQ] [MVO, AD] торрент скачать бесплатно

    Опубликовал: fregat | Дата: 31-08-2018, 05:01 | .torrent скачали: 0

    Проклятый дар / The Wicked Gift (2017) WEB-DLRip [H.264 / 720р-LQ] [MVO, AD]Производство: Италия/L/D Production, Movie Planet Group
    Жанр: ужасы, триллер, детектив
    Режиссер: Роберто Д'Атона

    Актеры
    Роберто Д'Атона, Аннамария Лоруссо, Франческо Эмуло, Катерина Корчинская, Андреа Милан, Алиса Вигано, Дэвид Уайт, Мирко Д'Атона, Майкл Сигал, Алессандро Карневале Пеллино

    Описание

    Итан, молодой, стеснительный и довольно закрытый парень, много лет страдающий от бессонницы из-за жутких кошмаров. Решив, что причиной всему психическое расстройство он посещает психотерапевта, но в результате с помощью своего друга-медиума узнает, что за кошмарами стоит нечто куда более невыразимо страшное.

    Дата мировой премьеры: 22 июня 2017
    Продолжительность: 01: 51: 33
    Качество видео: WEB-DLRip
    Перевод: многоголосый закадровый, любительский (Студия Колобок)
    Присутствует ненормативная лексика!
    Субтитры: отсутствуют
    Реклама: Присутствуют текстовые вставки рекламы
    Видео: AVC/H.264, 1280x536, ~4380 kbps
    Аудио: AC3, 2 ch, 384 kbps

    Код: выделить все
    Общее
    Уникальный идентификатор : 263105244668837947397331505874351587693 (0xC5F03A17A54B97A513C70E12FEA2816D)
    Полное имя : The.Wicked.Gift.2017.Pk.WEB-DL.720p.mkv
    Формат : Matroska
    Версия формата : Version 4/Version 2
    Размер файла : 3, 71 Гбайт
    Продолжительность : 1 ч. 51 м.
    Режим общего битрейта : Переменный
    Общий поток : 4766 Кбит/сек
    Дата кодирования : UTC 2018-08-29 13:42:12
    Программа кодирования : mkvmerge v25.0.0 ('Prog Noir') 32-bit
    Библиотека кодирования : libebml v1.3.6 + libmatroska v1.4.9
    Видео
    Идентификатор : 1
    Формат : AVC
    Формат/Информация : Advanced Video Codec
    Профиль формата :High@L4.1
    Настройки формата : CABAC/4 Ref Frames
    Параметр CABAC формата : Да
    Параметр RefFrames формата : 4 кадра
    Идентификатор кодека : V_MPEG4/ISO/AVC
    Продолжительность : 1 ч. 51 м.
    Вид битрейта : Переменный
    Битрейт : 4380 Кбит/сек
    Максимальный битрейт : 5000 Кбит/сек
    Ширина : 1280 пикселей
    Высота : 536 пикселей
    Соотношение сторон : 2, 40:1
    Режим частоты кадров : Постоянный
    Частота кадров : 23, 976 (24000/1001) кадра/сек
    Стандарт вещания : Component
    Цветовое пространство : YUV
    Субдискретизация насыщенности : 4:2:0
    Битовая глубина : 8 бит
    Тип развёртки : Прогрессивная
    Бит/(Пиксели*Кадры) : 0.266
    Размер потока : 3, 41 Гбайт (92%)
    Default : Нет
    Forced : Нет
    Цветовой диапазон : Limited
    Основные цвета : BT.709
    Характеристики трансфера : BT.709
    Коэффициенты матрицы : BT.709
    Аудио
    Идентификатор : 2
    Формат : AC-3
    Формат/Информация : Audio Coding 3
    Идентификатор кодека : A_AC3
    Продолжительность : 1 ч. 51 м.
    Вид битрейта : Постоянный
    Битрейт : 384 Кбит/сек
    Каналы : 2 канала
    Расположение каналов : Front: L R
    Частота : 48, 0 КГц
    Частота кадров : 31, 250 кадров/сек (1536 SPF)
    Битовая глубина : 16 бит
    Метод сжатия : С потерями
    Размер потока : 306 Мбайт (8%)
    ServiceKind/String : Complete Main
    Default : Нет
    Forced : Нет


    Скриншоты для ознакомления



    Все одноименные релизы в Клубе
    Время раздачи: с 10: 00 до 22: 00 (до появления первых 3-5 скачавших)


    Проклятый дар/The Wicked Gift (2017) WEB-DLRip [H.264/720р-LQ] [MVO, AD]
    Рейтинг →
     (голосов: 1, оценка 4/5, голосовать можно 1 раз )

    Другие торренты по теме:

  • Следствие вели... с Леонидом Каневским. Проклятый клад. Выпуск 278 (28.09.2014) SATRip
  • Проклятый путь / Road to Perdition (2002) BDRip [720p]
  • Алексей Пехов | Проклятый горн (2015) [MP3]
  • Haunted Hotel 8: Eternity / Проклятый отель 8: Вечность (2015) [Ru] Unofficial [Collectors Edition / Коллекционное издание] скачать через торрент бесплатно
  • Говорим и показываем. Проклятый дом (26.05.2015) SATRip скачать через торрент бесплатно
  • Mayan Prophecies: Cursed Island / Пророчества Майя. Проклятый остров (2013) [Ru] Unofficial [Collectors Edition / Коллекционное издание] скачать через торрент бесплатно
  • Haunted Hotel 9: Phoenix / Проклятый отель 9: Феникс (2015) [Ru] Unofficial [Collectors Edition / Коллекционное издание] скачать через торрент бесплатно
  • Проклятый путь / Road to Perdition (2002) BDRip [H.264 / 720p]


    • Комментарии (0):

      Информация

      Информация

        Посетители, находящиеся в группе Гости, не могут оставлять комментарии в данной новости.

        ↓ Меню




        ↓ Опрос

        Вы добавили сайт в закладки?
        Да
        Нет


        Top 10 за месяц (Другое)