.
Авторизация | Регистрация
Хочешь лучшие торренты? Добавь свой email!
Добавить

Торрент скачать бесплатно

  • support: webmaster@btracker.club
» » Поимка / The Capture (2017) WEB-DLRip [MVO] [AD] торрент скачать бесплатно


    Поимка / The Capture (2017) WEB-DLRip [MVO] [AD] торрент скачать бесплатно

    Опубликовал: fregat | Дата: 26-08-2018, 05:00 | .torrent скачали: 2

    Поимка / The Capture (2017) WEB-DLRip [MVO] [AD]Производство: США/Science Machine
    Жанр: Фантастика
    Режиссер: Джим Эгнью

    Актеры
    Аманда Уайсс, Нора-Джейн Нун, Джонатан Ховард, Родни Роулэнд, Энни Монро, Катрин Аннетт, Дженнифер Ингрум, Сара Уоррен, Шон Келлер, Зэй Хардинг

    Описание

    Группа учёных тайно проводит неоднозначный эксперимент, искривляя время и пространство для того, чтобы найти ответ на один из самых важных метафизических вопросов нашей вселенной.

    Продолжительность: 01: 18: 59
    Качество видео: WEB-DLRip
    Перевод: Многоголосый закадровый, любительский (Синема УС)
    Субтитры: отсутствуют
    Реклама: Присутствуют вставки голосовой и текстовой рекламы
    Видео: Xvid, 720x304, ~1863 Kbps
    Аудио: AC3, 2 ch, 384 Kbps

    Общее
    Полное имя : D: CDПоимка (Ужасы) (2017) MVO WEB-DLRipThe_Capture_2018_WEB-DLRip_MVO.avi
    Формат : AVI
    Формат/Информация : Audio Video Interleave
    Размер файла : 1, 25 Гбайт
    Продолжительность : 1 ч. 18 м.
    Общий поток : 2257 Кбит/сек
    Программа кодирования : VirtualDubMod 1.5.10.2 (build 2540/release)
    Библиотека кодирования : VirtualDub build 35576/release
    Видео
    Идентификатор : 0
    Формат : MPEG-4 Visual
    Профиль формата : Advanced Simple@L5
    Настройки формата : BVOP2/Custom Matrix
    Параметр BVOP формата : 2
    Параметр QPel формата : Нет
    Параметр GMC формата : Без точки перехода
    Параметр матрицы формата : Выборочная
    Идентификатор кодека : XVID
    Идентификатор кодека/Подсказка : XviD
    Продолжительность : 1 ч. 18 м.
    Битрейт : 1863 Кбит/сек
    Ширина : 720 пикселей
    Высота : 304 пикселя
    Соотношение сторон : 2, 35: 1
    Частота кадров : 23, 976 (24000/1001) кадра/сек
    Цветовое пространство : YUV
    Субдискретизация насыщенности : 4: 2: 0
    Битовая глубина : 8 бит
    Тип развёртки : Прогрессивная
    Метод сжатия : С потерями
    Бит/(Пиксели*Кадры) : 0.355
    Размер потока : 1, 03 Гбайт (83%)
    Библиотека кодирования : XviD 1.2.1 (UTC 2008-12-04)
    Аудио
    Идентификатор : 1
    Формат : AC-3
    Формат/Информация : Audio Coding 3
    Идентификатор кодека : 2000
    Продолжительность : 1 ч. 18 м.
    Вид битрейта : Постоянный
    Битрейт : 384 Кбит/сек
    Каналы : 2 канала
    Расположение каналов : Front: L R
    Частота : 48, 0 КГц
    Частота кадров : 31, 250 кадров/сек (1536 SPF)
    Битовая глубина : 16 бит
    Метод сжатия : С потерями
    Размер потока : 217 Мбайт (17%)
    Выравнивание : Разделение по промежуткам
    Продолжительность промежутка : 42 мс. (1, 00 видеокадр)
    Время предзагрузки промежутка : 500 мс.
    ServiceKind/String : Complete Main

    Скриншоты для ознакомления



    Все одноименные релизы в Клубе
    Время раздачи: 24/7 (круглосуточно) (до появления первых 3-5 скачавших)


    Поимка/The Capture (2017) WEB-DLRip [MVO] [AD]
    Рейтинг →
     (голосов: 1, оценка 5/5, голосовать можно 1 раз )

    Другие торренты по теме:



      Комментарии (0):

      Информация

      Информация

        Посетители, находящиеся в группе Гости, не могут оставлять комментарии в данной новости.

        ↓ Меню




        ↓ Опрос

        Вы добавили сайт в закладки?
        Да
        Нет


        Top 10 за месяц (Другое)