.
Авторизация | Регистрация
Хочешь лучшие торренты? Добавь свой email!
Добавить

Торрент скачать бесплатно

  • support: webmaster@btracker.club
» » Харизма (Харизмата) / Charismata (2017) WEB-DLRip [MVO] [AD] торрент скачать бесплатно


    Харизма (Харизмата) / Charismata (2017) WEB-DLRip [MVO] [AD] торрент скачать бесплатно

    Опубликовал: fregat | Дата: 26-08-2018, 05:00 | .torrent скачали: 0

    Харизма (Харизмата) / Charismata (2017) WEB-DLRip [MVO] [AD]Производство: США/Hydra Films RKM, Loose Canon Films
    Жанр: Ужасы
    Режиссер: Энди Коллиер, Тоор Миан
    Продюсер: Энди Коллиер, Тоор Миан

    Актеры
    Сара Бек Мэтер, Джейми Саттертвейт, Андонис Энтони, Джонни Виваш, Росс Маллен, Дэвид Дж. Пил, Итан Чаплс, Николь О'Нилл, Энтони Тейлор, Шон Нопп

    Описание

    Психологический фильм ужасов о детективе, которая сталкивается с ритуальными убийствами. Пытаясь раскрыть непростое дело, она начинает сходить с ума. Что же таится за адскими символами и библейскими отсылками?..

    Продолжительность: 01: 36: 16
    Качество видео: WEB-DLRip
    Перевод: Многоголосый закадровый, любительский (Синема УС)
    Субтитры: отсутствуют
    Реклама: Присутствуют вставки голосовой и текстовой рекламы
    Видео: Xvid, 720x304, ~1450 Kbps
    Аудио: AC3, 2 ch, 384 Kbps

    Общее
    Полное имя : D: CDХаризмата (Ужасы) (2017) MVO WEB-DLRipCharismata_2018_WEB-DLRip_MVO.avi
    Формат : AVI
    Формат/Информация : Audio Video Interleave
    Размер файла : 1, 24 Гбайт
    Продолжительность : 1 ч. 36 м.
    Общий поток : 1843 Кбит/сек
    Программа кодирования : VirtualDubMod 1.5.10.2 (build 2540/release)
    Библиотека кодирования : VirtualDub build 35576/release
    Видео
    Идентификатор : 0
    Формат : MPEG-4 Visual
    Профиль формата : Advanced Simple@L5
    Настройки формата : BVOP2/Custom Matrix
    Параметр BVOP формата : 2
    Параметр QPel формата : Нет
    Параметр GMC формата : Без точки перехода
    Параметр матрицы формата : Выборочная
    Идентификатор кодека : XVID
    Идентификатор кодека/Подсказка : XviD
    Продолжительность : 1 ч. 36 м.
    Битрейт : 1450 Кбит/сек
    Ширина : 720 пикселей
    Высота : 304 пикселя
    Соотношение сторон : 2, 35: 1
    Частота кадров : 23, 976 (24000/1001) кадра/сек
    Цветовое пространство : YUV
    Субдискретизация насыщенности : 4: 2: 0
    Битовая глубина : 8 бит
    Тип развёртки : Прогрессивная
    Метод сжатия : С потерями
    Бит/(Пиксели*Кадры) : 0.276
    Размер потока : 998 Мбайт (79%)
    Библиотека кодирования : XviD 1.2.1 (UTC 2008-12-04)
    Аудио
    Идентификатор : 1
    Формат : AC-3
    Формат/Информация : Audio Coding 3
    Идентификатор кодека : 2000
    Продолжительность : 1 ч. 36 м.
    Вид битрейта : Постоянный
    Битрейт : 384 Кбит/сек
    Каналы : 2 канала
    Расположение каналов : Front: L R
    Частота : 48, 0 КГц
    Частота кадров : 31, 250 кадров/сек (1536 SPF)
    Битовая глубина : 16 бит
    Метод сжатия : С потерями
    Размер потока : 264 Мбайт (21%)
    Выравнивание : Разделение по промежуткам
    Продолжительность промежутка : 42 мс. (1, 00 видеокадр)
    Время предзагрузки промежутка : 500 мс.
    ServiceKind/String : Complete Main

    Скриншоты для ознакомления



    Все одноименные релизы в Клубе
    Время раздачи: 24/7 (круглосуточно) (до появления первых 3-5 скачавших)


    Харизма (Харизмата)/Charismata (2017) WEB-DLRip [MVO] [AD]
    Рейтинг →
     (голосов: 1, оценка 5/5, голосовать можно 1 раз )

    Другие торренты по теме:

  • Алексей Хитров | V.I.P. ХАРИЗМА. Самые жесткие приемы психологической атаки (2010) CamRip
  • Лев Вожеватов | Харизма в соблазнении 2.0. Запрещенные приемы влюбления в себя девушки (2013) CamRip
  • Эндрю Лэй | Харизма. Искусство производить сильное и незабываемое впечатление (2013) [EPUB, FB2, MOBI]
  • Аллан Пиз, Барбара Пиз | Харизма. Искусство успешного общения (2012) [EPUB, FB2, MOBI]
  • Максим Сырбу | «Харизма голоса» для мужчин и женщин (2012) [unpacked]
  • Харизма - Бьёмся За Небо (2017) [MP3|320 Kbps] <Melodic Power Metal>
  • Радислав Гандапас | Харизма лидера в бизнесе (2007) DVDRip
  • Харизма - Стражи границ (2018) EP [MP3|320 Kbps] <Melodic Power Metal>


    • Комментарии (0):

      Информация

      Информация

        Посетители, находящиеся в группе Гости, не могут оставлять комментарии в данной новости.

        ↓ Меню




        ↓ Опрос

        Вы добавили сайт в закладки?
        Да
        Нет


        Top 10 за месяц (Другое)