.
Авторизация | Регистрация
Хочешь лучшие торренты? Добавь свой email!
Добавить

Торрент скачать бесплатно

  • support: webmaster@btracker.club
» » Смотри в Небо / Watch the Sky (2017) WEB-DLRip [MVO] [AD] торрент скачать бесплатно


    Смотри в Небо / Watch the Sky (2017) WEB-DLRip [MVO] [AD] торрент скачать бесплатно

    Опубликовал: fregat | Дата: 26-08-2018, 05:00 | .torrent скачали: 3

    Смотри в Небо / Watch the Sky (2017) WEB-DLRip [MVO] [AD]Производство: США/ROC Film Partners, MoonBalloon Entertainment
    Жанр: Фантастика
    Режиссер: Александр Мурильо

    Актеры
    Люк Олбрайт, Николь Брукс, Джордж Калеодис, Крис Корбин, Рэнди Краудер, Эми Фаррелл, Крис Фрост, Карен Фурно, Эдрианн Грэйди, Карсон Керн

    Описание

    Пытаясь заснять собственное видео в открытом космосе, два брата неожиданно оказываются впутанными в историю заговора спецслужб, которые провели неудачный научный эксперимент, и теперь всему городу грозит вторжение инопланетян, а затем, и полное уничтожение человечества.

    Продолжительность: 01: 27: 26
    Качество видео: WEB-DLRip
    Перевод: Многоголосый закадровый, любительский (Синема УС)
    Субтитры: отсутствуют
    Реклама: Присутствуют вставки голосовой и текстовой рекламы
    Видео: Xvid, 720x400, ~1748 Kbps
    Аудио: AC3, 2 ch, 384 Kbps

    Общее
    Полное имя : D: CDСмотри в Небо (Фантастика) WEB-DLRip-MVOWatch_the_Sky_2O17_WEB-DLRip_MVO.avi
    Формат : AVI
    Формат/Информация : Audio Video Interleave
    Размер файла : 1, 31 Гбайт
    Продолжительность : 1 ч. 27 м.
    Общий поток : 2141 Кбит/сек
    Программа кодирования : VirtualDubMod 1.5.10.2 (build 2540/release)
    Библиотека кодирования : VirtualDub build 35576/release
    Видео
    Идентификатор : 0
    Формат : MPEG-4 Visual
    Профиль формата : Advanced Simple@L5
    Настройки формата : BVOP2/Custom Matrix
    Параметр BVOP формата : 2
    Параметр QPel формата : Нет
    Параметр GMC формата : Без точки перехода
    Параметр матрицы формата : Выборочная
    Идентификатор кодека : XVID
    Идентификатор кодека/Подсказка : XviD
    Продолжительность : 1 ч. 27 м.
    Битрейт : 1748 Кбит/сек
    Ширина : 720 пикселей
    Высота : 400 пикселей
    Соотношение сторон : 16: 9
    Частота кадров : 23, 976 (24000/1001) кадра/сек
    Цветовое пространство : YUV
    Субдискретизация насыщенности : 4: 2: 0
    Битовая глубина : 8 бит
    Тип развёртки : Прогрессивная
    Метод сжатия : С потерями
    Бит/(Пиксели*Кадры) : 0.253
    Размер потока : 1, 07 Гбайт (82%)
    Библиотека кодирования : XviD 1.2.1 (UTC 2008-12-04)
    Аудио
    Идентификатор : 1
    Формат : AC-3
    Формат/Информация : Audio Coding 3
    Идентификатор кодека : 2000
    Продолжительность : 1 ч. 27 м.
    Вид битрейта : Постоянный
    Битрейт : 384 Кбит/сек
    Каналы : 2 канала
    Расположение каналов : Front: L R
    Частота : 48, 0 КГц
    Частота кадров : 31, 250 кадров/сек (1536 SPF)
    Битовая глубина : 16 бит
    Метод сжатия : С потерями
    Размер потока : 240 Мбайт (18%)
    Выравнивание : Разделение по промежуткам
    Продолжительность промежутка : 42 мс. (1, 00 видеокадр)
    Время предзагрузки промежутка : 500 мс.
    ServiceKind/String : Complete Main

    Скриншоты для ознакомления



    Все одноименные релизы в Клубе
    Время раздачи: 24/7 (круглосуточно) (до появления первых 3-5 скачавших)


    Смотри в Небо/Watch the Sky (2017) WEB-DLRip [MVO] [AD]
    Рейтинг →
     (голосов: 1, оценка 3/5, голосовать можно 1 раз )

    Другие торренты по теме:

  • П. В. Маковецкий | Смотри в корень! (1966) [DJVU]
  • Иди и смотри (1985) DVDRip [H.264] скачать через торрент бесплатно
  • Иди и смотри (1985) 2*DVD9 скачать через торрент бесплатно
  • Николай Антонов | Большой мир Нюры маленькой. Смотри прямо в лицо (1967) [PDF, DJVU] скачать через торрент бесплатно
  • Роб Найт | Смотри, что у тебя внутри. Как микробы, живущие в нашем теле, определяют наше здоровье и нашу личность (2016) [FB2]
  • А теперь не смотри / Dont Look Now (1973) BDRemux [H.264 / 1080p]
  • Евгений Мирошниченко | Смотри и учись! (2016) [PDF]
  • Джон Шерман | Смотри на себя (2014) [MP3]


    • Комментарии (0):

      Информация

      Информация

        Посетители, находящиеся в группе Гости, не могут оставлять комментарии в данной новости.

        ↓ Меню




        ↓ Опрос

        Вы добавили сайт в закладки?
        Да
        Нет


        Top 10 за месяц (Другое)