.
Авторизация | Регистрация
Хочешь лучшие торренты? Добавь свой email!
Добавить

Торрент скачать бесплатно

  • support: webmaster@btracker.club
» » Заложник Икс / Hostage X (2017) HDRip [VO] [AD] торрент скачать бесплатно


    Заложник Икс / Hostage X (2017) HDRip [VO] [AD] торрент скачать бесплатно

    Опубликовал: fregat | Дата: 24-08-2018, 05:00 | .torrent скачали: 1

    Заложник Икс / Hostage X (2017) HDRip [VO] [AD]Производство: США, Talent United Film TV
    Жанр: Триллер
    Режиссер: Паул Рювен

    Актеры
    Сутсе Фабер, Аднан Фекович, Лиа Хеленклакен, Стефани Джустен, Джейсон Лондон, Дункан Мейерринг, Ричард МессинаЮ Ли Оудман, Эргун Симсек, Бонни Уильямс

    Описание

    Главный герой просыпается в конюшне в незнакомом месте и понимает, что не помнит ничего, включая своё имя. Его удерживают взаперти вооружённые люди непонятной национальности, говорящие на непонятном языке, которые относятся к нему с нескрываемой ненавистью. Хитростью ему удаётся украсть телефон одного из них и позвонить в ЦРУ, где ему соглашаются помочь, но только при одном условии: он должен доказать что является гражданином США.

    Возраст: этот продукт не был классифицирован
    Рейтинг MPAA: этот продукт не был классифицирован
    Продолжительность: 01: 17: 43
    Качество видео: HDRip
    Перевод: Одноголосый закадровый
    Субтитры: Русские (Full), английские (Full)
    Реклама: В титрах короткая реклама
    Видео: Xvid, 720х304, ~1798 Kbps
    Аудио 1: Русский AC3, 2 ch, 192 Kbps (ХихиДок)
    Аудио 2: Английский AC3, 6 ch, 384 Kbps

    Полное имя : E: MMMMHostage.X.2017.rusHostage.X.2018.HDRip.avi
    Формат : AVI
    Формат/Информация : Audio Video Interleave
    Размер файла : 1, 30 Гбайт
    Продолжительность : 1 ч. 17 м.
    Общий поток : 2388 Кбит/сек
    Программа кодирования : VirtualDubMod 1.5.10.2 (build 2540/release)
    Библиотека кодирования : VirtualDubMod build 2540/release
    Видео
    Идентификатор : 0
    Формат : MPEG-4 Visual
    Профиль формата : Advanced Simple@L5
    Настройки формата : BVOP2
    Параметр BVOP формата : 2
    Параметр QPel формата : Нет
    Параметр GMC формата : Без точки перехода
    Параметр матрицы формата : Default (H.263)
    Режим смешивания : Сжатый битовый поток
    Идентификатор кодека : XVID
    Идентификатор кодека/Подсказка : XviD
    Продолжительность : 1 ч. 17 м.
    Битрейт : 1798 Кбит/сек
    Ширина : 720 пикселей
    Высота : 304 пикселя
    Соотношение сторон : 2, 35: 1
    Частота кадров : 23, 976 (24000/1001) кадра/сек
    Цветовое пространство : YUV
    Субдискретизация насыщенности : 4: 2: 0
    Битовая глубина : 8 бит
    Тип развёртки : Прогрессивная
    Метод сжатия : С потерями
    Бит/(Пиксели*Кадры) : 0.343
    Размер потока : 999 Мбайт (75%)
    Библиотека кодирования : XviD 66
    Аудио #1
    Идентификатор : 1
    Формат : AC-3
    Формат/Информация : Audio Coding 3
    Идентификатор кодека : 2000
    Продолжительность : 1 ч. 17 м.
    Вид битрейта : Постоянный
    Битрейт : 192 Кбит/сек
    Каналы : 2 канала
    Расположение каналов : Front: L R
    Частота : 48, 0 КГц
    Частота кадров : 31, 250 кадров/сек (1536 SPF)
    Битовая глубина : 16 бит
    Метод сжатия : С потерями
    Размер потока : 107 Мбайт (8%)
    Выравнивание : Разделение по промежуткам
    Продолжительность промежутка : 42 мс. (1, 00 видеокадр)
    Время предзагрузки промежутка : 500 мс.
    ServiceKind/String : Complete Main
    Аудио #2
    Идентификатор : 2
    Формат : AC-3
    Формат/Информация : Audio Coding 3
    Идентификатор кодека : 2000
    Продолжительность : 1 ч. 17 м.
    Вид битрейта : Постоянный
    Битрейт : 384 Кбит/сек
    Каналы : 6 каналов
    Расположение каналов : Front: L C R, Side: L R, LFE
    Частота : 48, 0 КГц
    Частота кадров : 31, 250 кадров/сек (1536 SPF)
    Битовая глубина : 16 бит
    Метод сжатия : С потерями
    Размер потока : 213 Мбайт (16%)
    Выравнивание : Соединение по промежуткам
    Продолжительность промежутка : 42 мс. (1, 00 видеокадр)
    Время предзагрузки промежутка : 512 мс.
    ServiceKind/String : Complete Main

    Скриншоты для ознакомления





    Все одноименные релизы в Клубе
    Время раздачи: с 10: 00 до 22: 00 (до появления первых 3-5 скачавших)


    Заложник Икс/Hostage X (2017) HDRip [VO] [AD]
    Рейтинг →
     (голосов: 1, оценка 3/5, голосовать можно 1 раз )

    Другие торренты по теме:

  • Заложник / Hostage (2005) HDRip [AVO] [Open Matte Version]
  • Заложник / Hostage (2005) Blu-ray [H.264 / 1080p]
  • Заложник / Hostage (2005) BDRemux [H.264 / 1080p]
  • Заложник / Hostage (2005) BDRip [H.264 / 1080p]
  • Заложник / Hostage (2005) BDRip [H.264 / 720p]
  • Заложник / Hostage (2005) BDRip [H.264 / 720p] [Open Matte]
  • Американский заложник / American Hostage (2015) WEB-DLRip [FLW]


    • Комментарии (0):

      Информация

      Информация

        Посетители, находящиеся в группе Гости, не могут оставлять комментарии в данной новости.

        ↓ Меню




        ↓ Опрос

        Вы добавили сайт в закладки?
        Да
        Нет


        Top 10 за месяц (Другое)