.
Авторизация | Регистрация
Хочешь лучшие торренты? Добавь свой email!
Добавить

Торрент скачать бесплатно

  • support: webmaster@btracker.club
» » Devil May Cry 5 E3 2018 Announcement (2018) WEB-DL [VP9 / 2160p-LQ] [4K, Трейлер] [EN] торрент скачать бесплатно


    Devil May Cry 5 E3 2018 Announcement (2018) WEB-DL [VP9 / 2160p-LQ] [4K, Трейлер] [EN] торрент скачать бесплатно

    Опубликовал: fregat | Дата: 8-08-2018, 05:00 | .torrent скачали: 0

    Devil May Cry 5 E3 2018 Announcement (2018) WEB-DL [VP9 / 2160p-LQ] [4K, Трейлер] [EN]Производство: Capcom RD Division 1
    Жанр: Анимация
    Режиссер: Хидэаки Ицуно

    Актеры
    Хидэаки Ицуно

    Описание

    Devil May Cry 5 — видеоигра в жанре слэшер, разрабатывающаяся и издающаяся компанией Capcom. Пятая игра в одноимённой серии и пятая же в хронологии. Анонс игры состоялся в июне 2018 года. Сама игра планируется к выпуску в марте 2019 года для платформ PlayStation 4, Xbox One и Windows.

    Дата мировой премьеры: 2019
    Релиз от: Capcom
    Продолжительность: 00: 02: 39
    Качество видео: HDRip
    Перевод: Отсутствует
    Язык озвучки: Английский
    Субтитры: Отсутсвуют
    Видео: VP9, 3840x2160, ~21.9 Mbps
    Аудио: Vorbis, 2 ch, 128 Kbps - английский

    Общее
    Уникальный идентификатор : 162837703129696147970057070440157575515 (0x7A81669E51EE21A31C7E3970C78C795B)
    Полное имя : D: FileDevil May Cry 5 Trailer (4K 60FPS HD) - E3 2018 Announcement Trailer.mkv
    Формат : Matroska
    Версия формата : Version 4/Version 2
    Размер файла : 427 Мбайт
    Продолжительность : 2 м. 39 с.
    Режим общего битрейта : Переменный
    Общий поток : 22, 5 Мбит/сек
    Программа кодирования : Lavf56.40.101
    Библиотека кодирования : Lavf56.40.101
    Видео
    Идентификатор : 1
    Формат : VP9
    Идентификатор кодека : V_VP9
    Продолжительность : 2 м. 39 с.
    Битрейт : 21, 9 Мбит/сек
    Ширина : 3840 пикселей
    Высота : 2160 пикселей
    Соотношение сторон : 16: 9
    Режим частоты кадров : Переменный
    Размер потока : 416 Мбайт (97%)
    Default : Да
    Forced : Нет
    Аудио
    Идентификатор : 2
    Формат : Vorbis
    Параметр Floor формата : 1
    Идентификатор кодека : A_VORBIS
    Продолжительность : 2 м. 39 с.
    Вид битрейта : Переменный
    Битрейт : 128 Кбит/сек
    Каналы : 2 канала
    Частота : 44, 1 КГц
    Метод сжатия : С потерями
    Размер потока : 2, 43 Мбайт (1%)
    Программа кодирования : Google
    Default : Да
    Forced : Нет

    Скриншоты для ознакомления



    Все одноименные релизы в Клубе
    Время раздачи: 24/7 (до появления первых 3-5 скачавших)


    Devil May Cry 5 E3 2018 Announcement (2018) WEB-DL [VP9/2160p-LQ] [4K, Трейлер] [EN]
    Рейтинг →
     (голосов: 1, оценка 5/5, голосовать можно 1 раз )

    Другие торренты по теме:

  • Дьявол носит «Prada» / The Devil Wears Prada (2006) BDRip [720p] ATV
  • Tango Down - Charming Devil (2014) [FLAC|Lossless]<Hard Rock> скачать через торрент бесплатно
  • Рука Дьявола / Where the Devil Hides (2014) WEB-DLRip [VO]
  • Рука Дьявола / Where the Devil Hides (2014) WEB-DL [1080p] ATV
  • DmC: Devil May Cry (2013) [Ru / Multi] (1.0Upd3 / 4dlc) Repack R.G. Revenants
  • Я видел Дьявола / I Saw The Devil (2010) BDRip [1080p] [AVO]
  • Blues Pills - Devil Man (2013) EP [MP3|320 кб / с]<Blues Rock, Stoner Rock>
  • DmC: Devil May Cry (2013) [Ru / En] (1.0Upd3 / 4dlc) Repack R.G. Catalyst


    • Комментарии (0):

      Информация

      Информация

        Посетители, находящиеся в группе Гости, не могут оставлять комментарии в данной новости.

        ↓ Меню




        ↓ Опрос

        Вы добавили сайт в закладки?
        Да
        Нет


        Top 10 за месяц (Другое)