.
Авторизация | Регистрация
Хочешь лучшие торренты? Добавь свой email!
Добавить

Торрент скачать бесплатно

  • support: webmaster@btracker.club
» » Бесит быть нормальным / Mad to Be Normal (2016) WEBRip [H.264] [MVO] [AD] торрент скачать бесплатно


    Бесит быть нормальным / Mad to Be Normal (2016) WEBRip [H.264] [MVO] [AD] торрент скачать бесплатно

    Опубликовал: fregat | Дата: 8-08-2018, 05:00 | .torrent скачали: 1

    Бесит быть нормальным / Mad to Be Normal (2016) WEBRip [H.264] [MVO] [AD]Производство: Великобритания/Bad Penny Productions, Gizmo Films, GSP Studios
    Жанр: Драма
    Режиссер: Роберт Маллан

    Актеры
    Элизабет Мосс, Дэвид Теннант, Майкл Гэмбон, Гэбриел Бирн, Дэвид Бамбер, Тревор Уайт, Оливия Пуле, Дэвид Эннэн, Джером Холдер, Зак Холлэнд

    Описание

    60-е годы ХХ века. Р. Д. Лэйнг - шотландский психиатр, который возмущён тем, как его коллеги по цеху относятся к своим пациентам: клиники-тюрьмы, принудительное лечение, электрошок. Он открывает собственный центр в большом доме в восточном Лондоне, где разрабатывает новые способы работы с больными: групповая терапия, совместные разговоры, никакого насилия и лекарств (хотя врачебные дозы ЛСД никому не помешают). Профессиональное сообщество же смотрит на доктора так, словно он основал странный и потенциально опасный культ.

    Возраст: 18+ (зрителям, достигшим 18 лет. запрещено для детей)
    Продолжительность: 01: 46: 19
    Качество видео: WEBRip
    Перевод: Многоголосый закадровый, любительский (GreenРай Studio)
    Субтитры: отсутствуют
    Реклама: аудио, видео и текстовые вставки
    Видео: AVC/H.264, 912x388, ~1000 Kbps
    Аудио: AC3, 2 ch, 192 Kbps

    General
    Unique ID : 54802101200599432396779316692023154492 (0x293A803293F0DA139E5ADBEDD742973C)
    Complete name : /media/win/TORRENT/Mad.to.Be.Normal.2017.WEB-DLRipAVC.mkv
    Format : Matroska
    Format version : Version 4/Version 2
    File size : 909 MiB
    Duration : 1 h 46 min
    Overall bit rate : 1 195 kb/s
    Movie name : Mad.to.Be.Normal.2017.WEB-DLRipAVC
    Encoded date : UTC 2018-07-30T20: 37: 02Z
    Writing application : HandBrake 1.1.1 2018061800
    Writing library : Lavf57.7.2
    Video
    ID : 1
    Format : AVC
    Format/Info : Advanced Video Codec
    Format profile : High@L4
    Format settings : CABAC/12 Ref Frames
    Format settings, CABAC : Yes
    Format settings, ReFrames : 12 frames
    Codec ID : V_MPEG4/ISO/AVC
    Duration : 1 h 46 min
    Bit rate : 1 000 kb/s
    Width : 912 pixels
    Height : 388 pixels
    Display aspect ratio : 2.35: 1
    Frame rate mode : Constant
    Frame rate : 23.976 (24000/1001) FPS
    Color space : YUV
    Chroma subsampling : 4: 2: 0
    Bit depth : 8 bits
    Scan type : Progressive
    Bits/(Pixel*Frame) : 0.118
    Stream size : 745 MiB (82%)
    Writing library : x264 core 152 r2854 e9a5903
    Encoding settings : cabac=1/ref=12/deblock=1: 0: 0/analyse=0x3: 0x113/me=umh/subme=9/psy=1/psy_rd=1, 00: 0, 00/mixed_ref=1/me_range=24/chroma_me=1/trellis=1/8x8dct=1/cqm=0/deadzone=21, 11/fast_pskip=1/chroma_qp_offset=-2/threads=12/lookahead_threads=1/sliced_threads=0/nr=0/decimate=1/interlaced=0/bluray_compat=0/constrained_intra=0/bframes=6/b_pyramid=2/b_adapt=2/b_bias=0/direct=1/weightb=1/open_gop=0/weightp=1/keyint=240/keyint_min=24/scenecut=40/intra_refresh=0/rc_lookahead=30/rc=2pass/mbtree=1/bitrate=1000/ratetol=1, 0/qcomp=0, 60/qpmin=0/qpmax=69/qpstep=4/cplxblur=20, 0/qblur=0, 5/vbv_maxrate=25000/vbv_bufsize=31250/nal_hrd=none/filler=0/ip_ratio=1, 40/aq=1: 1, 00
    Default : Yes
    Forced : No
    Color range : Limited
    Color primaries : BT.709
    Transfer characteristics : BT.709
    Matrix coefficients : BT.709
    Audio
    ID : 2
    Format : AC-3
    Format/Info : Audio Coding 3
    Codec ID : A_AC3
    Duration : 1 h 46 min
    Bit rate mode : Constant
    Bit rate : 192 kb/s
    Channel(s) : 2 channels
    Channel positions : Front: L R
    Sampling rate : 48.0 kHz
    Frame rate : 31.250 FPS (1536 SPF)
    Bit depth : 16 bits
    Compression mode : Lossy
    Stream size : 146 MiB (16%)
    Title : Stereo
    Service kind : Complete Main
    Default : Yes
    Forced : No


    Бесит быть нормальным/Mad to Be Normal (2016) WEBRip [H.264] [MVO] [AD]
    Рейтинг →
     (голосов: 1, оценка 5/5, голосовать можно 1 раз )

    Другие торренты по теме:

  • Бесит быть нормальным / Mad to Be Normal (2017) HDTVRip [MVO] [AD]


    • Комментарии (0):

      Информация

      Информация

        Посетители, находящиеся в группе Гости, не могут оставлять комментарии в данной новости.

        ↓ Меню




        ↓ Опрос

        Вы добавили сайт в закладки?
        Да
        Нет


        Top 10 за месяц (Другое)