.
Авторизация | Регистрация
Хочешь лучшие торренты? Добавь свой email!
Добавить

Торрент скачать бесплатно

  • support: webmaster@btracker.club
» » Наездник / The Rider (2017) WEBRip [H.264] [MVO] [AD] торрент скачать бесплатно


    Наездник / The Rider (2017) WEBRip [H.264] [MVO] [AD] торрент скачать бесплатно

    Опубликовал: fregat | Дата: 4-08-2018, 05:00 | .torrent скачали: 0

    Наездник / The Rider (2017) WEBRip [H.264] [MVO] [AD]Производство: США/Caviar, Highwayman Films
    Жанр: Драма, Вестерн
    Режиссер: Хлоя Чжао

    Актеры
    Брэйди Жандро, Тим Жандро, Лилли Жандро, Кэт Клиффорд, Tanner Langdeau, Lane Scott, Таннер Лангдо, Terri Dawn Pourier, James Calhoon, Деррик Дженис, Greg Barber

    Описание

    Восходящая звезда родео и талантливый дрессировщик лошадей, молодой ковбой Брэди вынужден оставить карьеру после серьёзной травмы головы. Вернувшись домой в индейскую резервацию Пайн-Ридж, он не видит никаких альтернатив своей прежней жизни. Тогда Брэди решает найти новую идентичность, а также понять, каково это - быть простым человеком в самом сердце Америки.

    Рейтинг MPAA: R (лицам до 17 лет обязательно присутствие взрослого)
    Продолжительность: 01: 38: 34
    Качество видео: WEBRip
    Перевод: Двуголосый закадровый, любительский (HiWay Grope)
    Субтитры: отсутствуют
    Реклама: аудио, видео и текстовые вставки (немного)
    Видео: AVC/H.264, 912x376, ~900 Kbps
    Аудио: AC3, 2 ch, 192 Kbps

    General
    Unique ID : 214748318440375076074806770708256964345 (0xA18F058E12B21AAAABBDBAB4DA40BEF9)
    Complete name : /media/win/TORRENT/UPLOAD_TORRENTS/The.Rider.2017.WEBRipAVC.mkv
    Format : Matroska
    Format version : Version 4/Version 2
    File size : 764 MiB
    Duration : 1 h 38 min
    Overall bit rate : 1 083 kb/s
    Writing application : Lavf57.71.100
    Writing library : Lavf57.71.100
    ErrorDetectionType : Per level 1
    Video
    ID : 1
    Format : AVC
    Format/Info : Advanced Video Codec
    Format profile : High@L4
    Format settings : CABAC/12 Ref Frames
    Format settings, CABAC : Yes
    Format settings, ReFrames : 12 frames
    Codec ID : V_MPEG4/ISO/AVC
    Duration : 1 h 38 min
    Bit rate : 869 kb/s
    Width : 912 pixels
    Height : 376 pixels
    Display aspect ratio : 2.40: 1
    Frame rate mode : Constant
    Frame rate : 25.000 FPS
    Color space : YUV
    Chroma subsampling : 4: 2: 0
    Bit depth : 8 bits
    Scan type : Progressive
    Bits/(Pixel*Frame) : 0.101
    Stream size : 613 MiB (80%)
    Default : Yes
    Forced : No
    Color range : Limited
    Color primaries : BT.601 NTSC
    Transfer characteristics : BT.709
    Matrix coefficients : BT.601
    DURATION : 01: 38: 34, 840000000
    Audio
    ID : 2
    Format : AC-3
    Format/Info : Audio Coding 3
    Codec ID : A_AC3
    Duration : 1 h 38 min
    Bit rate mode : Constant
    Bit rate : 192 kb/s
    Channel(s) : 2 channels
    Channel positions : Front: L R
    Sampling rate : 48.0 kHz
    Frame rate : 31.250 FPS (1536 SPF)
    Bit depth : 16 bits
    Compression mode : Lossy
    Delay relative to video : -64 ms
    Stream size : 135 MiB (18%)
    Service kind : Complete Main
    Default : Yes
    Forced : No
    DURATION : 01: 38: 34, 768000000

    Скриншоты для ознакомления



    Все одноименные релизы в Клубе
    Время раздачи: с 09: 00 до 21: 00 до пяти скачавших (до появления первых 3-5 скачавших)


    Наездник/The Rider (2017) WEBRip [H.264] [MVO] [AD]
    Рейтинг →
     (голосов: 1, оценка 3/5, голосовать можно 1 раз )

    Другие торренты по теме:

  • Штормовой наездник / Storm Rider (2013) BDRip [720p] [EN]
  • Наездник / The Rider (2017) WEB-DL [1080p] ATV (DVO)
  • Наездник / The Rider (2017) WEB-DLRip
  • Наездник / The Rider (2017) WEB-DL [H.264 / 1080p-LQ]


    • Комментарии (0):

      Информация

      Информация

        Посетители, находящиеся в группе Гости, не могут оставлять комментарии в данной новости.

        ↓ Меню




        ↓ Опрос

        Вы добавили сайт в закладки?
        Да
        Нет


        Top 10 за месяц (Другое)