.
Авторизация | Регистрация
Хочешь лучшие торренты? Добавь свой email!
Добавить

Торрент скачать бесплатно

  • support: webmaster@btracker.club
» » Счастье / Gluck (2011) HDRip [H.264] [MVO] [AD] торрент скачать бесплатно


    Счастье / Gluck (2011) HDRip [H.264] [MVO] [AD] торрент скачать бесплатно

    Опубликовал: fregat | Дата: 1-08-2018, 05:01 | .torrent скачали: 0

    Счастье / Gluck (2011) HDRip [H.264] [MVO] [AD]Производство: Германия/Constantin Film Produktion GmbH, Zweites Deutsches Fernsehen (ZDF)
    Жанр: Драма
    Режиссер: Дорис Дёрри

    Актеры
    Альба Рорвакер, Винсенц Кифер, Матиас Брандт, Марен Кройманн, Петра Клейнерт, Оливер Негеле

    Описание

    Двое встречаются в Берлине. Она — беженка из неназванной восточноевропейской страны, промышляющая на нелегальном положении проституцией. Он — бездомный панк с собакой. С первого же взгляда между ними появляется симпатия, со второго — любовь. Но не так все просто.

    Продолжительность: 01: 47: 20
    Качество видео: HDRip
    Перевод: Многоголосый закадровый, любительский (GreenРай Studio)
    Субтитры: отсутствуют
    Реклама: аудио, видео и текстовые вставки рекламы
    Видео: AVC/H.264, 912x384, ~900 Kbps
    Аудио: AC3, 2 ch, 192 Kbps

    General
    Unique ID : 283531399599950338641454534455947555994 (0xD54E2948C0802FDCAA6FC0A20F91F49A)
    Complete name : /media/win/TORRENT/UPLOAD_TORRENTS/Glueck.2012.HDRipAVC.mkv
    Format : Matroska
    Format version : Version 4/Version 2
    File size : 841 MiB
    Duration : 1 h 47 min
    Overall bit rate : 1 095 kb/s
    Movie name : Gluck.2012.HDRipAVC
    Encoded date : UTC 2018-07-29T10: 45: 40Z
    Writing application : HandBrake 1.1.1 2018061800
    Writing library : Lavf57.7.2
    Video
    ID : 1
    Format : AVC
    Format/Info : Advanced Video Codec
    Format profile : High@L4
    Format settings : CABAC/12 Ref Frames
    Format settings, CABAC : Yes
    Format settings, ReFrames : 12 frames
    Codec ID : V_MPEG4/ISO/AVC
    Duration : 1 h 47 min
    Bit rate : 900 kb/s
    Width : 912 pixels
    Height : 384 pixels
    Display aspect ratio : 2.40: 1
    Frame rate mode : Constant
    Frame rate : 23.976 (24000/1001) FPS
    Color space : YUV
    Chroma subsampling : 4: 2: 0
    Bit depth : 8 bits
    Scan type : Progressive
    Bits/(Pixel*Frame) : 0.107
    Stream size : 677 MiB (80%)
    Writing library : x264 core 152 r2854 e9a5903
    Encoding settings : cabac=1/ref=12/deblock=1: 0: 0/analyse=0x3: 0x113/me=umh/subme=9/psy=1/psy_rd=1, 00: 0, 00/mixed_ref=1/me_range=24/chroma_me=1/trellis=1/8x8dct=1/cqm=0/deadzone=21, 11/fast_pskip=1/chroma_qp_offset=-2/threads=6/lookahead_threads=1/sliced_threads=0/nr=0/decimate=1/interlaced=0/bluray_compat=0/constrained_intra=0/bframes=6/b_pyramid=2/b_adapt=2/b_bias=0/direct=1/weightb=1/open_gop=0/weightp=1/keyint=240/keyint_min=24/scenecut=40/intra_refresh=0/rc_lookahead=30/rc=2pass/mbtree=1/bitrate=900/ratetol=1, 0/qcomp=0, 60/qpmin=0/qpmax=69/qpstep=4/cplxblur=20, 0/qblur=0, 5/vbv_maxrate=25000/vbv_bufsize=31250/nal_hrd=none/filler=0/ip_ratio=1, 40/aq=1: 1, 00
    Default : Yes
    Forced : No
    Color range : Limited
    Color primaries : BT.709
    Transfer characteristics : BT.709
    Matrix coefficients : BT.709
    Audio
    ID : 2
    Format : AC-3
    Format/Info : Audio Coding 3
    Codec ID : A_AC3
    Duration : 1 h 47 min
    Bit rate mode : Constant
    Bit rate : 192 kb/s
    Channel(s) : 2 channels
    Channel positions : Front: L R
    Sampling rate : 48.0 kHz
    Frame rate : 31.250 FPS (1536 SPF)
    Bit depth : 16 bits
    Compression mode : Lossy
    Stream size : 147 MiB (18%)
    Title : Stereo
    Language : English
    Service kind : Complete Main
    Default : Yes
    Forced : No

    Скриншоты для ознакомления



    Все одноименные релизы в Клубе
    Время раздачи: с 09: 00 до 21: 00 до пяти скачавших (до появления первых 3-5 скачавших)


    Счастье/Gluck (2011) HDRip [H.264] [MVO] [AD]
    Рейтинг →
     (голосов: 1, оценка 5/5, голосовать можно 1 раз )

    Другие торренты по теме:

  • Не в парнях счастье (2014) HDTVRip
  • Не в парнях счастье (2014) HDTVRip [H.264 / 720p-LQ]
  • Не в парнях счастье (2014) HDTVRip [576p] iPad
  • Счастье надо беречь (1958) Screener скачать через торрент бесплатно
  • Счастье / Happiness (1998) HDRip скачать через торрент бесплатно
  • Лев Николаевич Толстой | Семейное счастье (1960) [MP3] скачать через торрент бесплатно
  • Сергей Пенкин - Счастье близко (2013) [FLAC|Lossless]<Pop> скачать через торрент бесплатно
  • VA - Ты мое счастье Только новинки попмузыки 50х50 (2015) [MP3|256 кб / с]<Pop, Dance>


    • Комментарии (0):

      Информация

      Информация

        Посетители, находящиеся в группе Гости, не могут оставлять комментарии в данной новости.

        ↓ Меню




        ↓ Опрос

        Вы добавили сайт в закладки?
        Да
        Нет


        Top 10 за месяц (Другое)