.
Авторизация | Регистрация
Хочешь лучшие торренты? Добавь свой email!
Добавить

Торрент скачать бесплатно

  • support: webmaster@btracker.club
» » Млечный путь / Milky Way (2014) TVRip [MVO, AD] торрент скачать бесплатно


    Млечный путь / Milky Way (2014) TVRip [MVO, AD] торрент скачать бесплатно

    Опубликовал: fregat | Дата: 30-07-2018, 05:00 | .torrent скачали: 1

    Млечный путь / Milky Way (2014) TVRip [MVO, AD]Производство: Швейцария, Бельгия/Idip Films
    Жанр: Драма, Триллер, Комедия
    Режиссер: Cyril Bron, Joseph Incardona

    Актеры
    Luna Aquilina, Ален Белло, Карло Брандт, Florence Budaï, Антонио Буиль, Моника Дитишеим, Жан-Поль Фавр, Lionel Fresard, Isabelle Fruleux

    Описание

    Неподалеку от швейцарского рабочего города Ла-Шо-де-Фон 45-летний Фредо, 30-летний Поль и 23-летняя Надя радуются возможности начать с нуля. Поездка в стиле рок-н-ролл через Францию к бельгийскому побережью Северного моря.

    Продолжительность: 01: 30: 41
    Качество видео: TVRip
    Перевод: Многоголосый закадровый, любительский (GreenРай Studio)
    Субтитры: отсутствуют
    Реклама: аудио, видео и текстовые вставки рекламы
    Видео: Divx 4, 720x304, ~738 Kbps
    Аудио: AC3, 2 ch, 192 Kbps

    General
    Complete name : /media/win/TORRENT/UPLOAD_TORRENTS/Milky.Way.2014.P.HDTVRip.avi
    Format : AVI
    Format/Info : Audio Video Interleave
    File size : 610 MiB
    Duration : 1 h 30 min
    Overall bit rate : 941 kb/s
    Video
    ID : 0
    Format : MPEG-4 Visual
    Format profile : Advanced Simple@L4
    Format settings : BVOP2
    Format settings, BVOP : 2
    Format settings, QPel : No
    Format settings, GMC : No warppoints
    Format settings, Matrix : Default (MPEG)
    Codec ID : DIVX
    Codec ID/Info : Project Mayo
    Codec ID/Hint : DivX 4
    Duration : 1 h 30 min
    Bit rate : 738 kb/s
    Width : 720 pixels
    Height : 304 pixels
    Display aspect ratio : 2.35: 1
    Frame rate : 23.976 (24000/1001) FPS
    Color space : YUV
    Chroma subsampling : 4: 2: 0
    Bit depth : 8 bits
    Scan type : Progressive
    Compression mode : Lossy
    Bits/(Pixel*Frame) : 0.141
    Stream size : 479 MiB (78%)
    Writing library : XviD 67
    Audio
    ID : 1
    Format : AC-3
    Format/Info : Audio Coding 3
    Codec ID : 2000
    Duration : 1 h 30 min
    Bit rate mode : Constant
    Bit rate : 192 kb/s
    Channel(s) : 2 channels
    Channel positions : Front: L R
    Sampling rate : 48.0 kHz
    Frame rate : 31.250 FPS (1536 SPF)
    Bit depth : 16 bits
    Compression mode : Lossy
    Stream size : 125 MiB (20%)
    Alignment : Aligned on interleaves
    Interleave, duration : 32 ms (0.77 video frame)
    Service kind : Complete Main

    Скриншоты для ознакомления



    Все одноименные релизы в Клубе
    Время раздачи: с 09: 00 до 21: 00 до пяти скачавших (до появления первых 3-5 скачавших)


    Млечный путь/Milky Way (2014) TVRip [MVO, AD]
    Рейтинг →
     (голосов: 1, оценка 5/5, голосовать можно 1 раз )

    Другие торренты по теме:

  • Александр Коноплин | Млечный Путь [сборник] (2011) [PDF] скачать через торрент бесплатно
  • Александр Коноплин | Млечный путь [сборник] (2011) [FB2]
  • Б. Бок, П. Бок | Млечный путь (1948) [DJVU]
  • Млечный путь (2015) WEB-DL [H.264 / 1080p-LQ]
  • Млечный путь (2015) WEB-DLRip
  • Млечный путь (2015) WEB-DL [H.264 / 720p-LQ]
  • Млечный путь (2015) WEB-Rip [1080p] ATV
  • Млечный путь (2015) WEBRip [H.264] [MP4|1024x428]


    • Комментарии (0):

      Информация

      Информация

        Посетители, находящиеся в группе Гости, не могут оставлять комментарии в данной новости.

        ↓ Меню




        ↓ Опрос

        Вы добавили сайт в закладки?
        Да
        Нет


        Top 10 за месяц (Другое)